Watch Online UFC Tuesday Night Contender Series S04W10

Online UFC Tuesday Night Contender Series S04W10 720p DX-TV

UFC Tuesday Night Contender Series

 

 UFC Tuesday Night Contender Series

 

Watch Online UFC Tuesday Night Contender Series S04W10

 

 

[su_expand more_text=”Show More Info” less_text=”Close all Info” height=”30″ text_color=”#000000″ link_color=”#e25f8b” link_style=”button” more_icon=”icon: arrow-down” less_icon=”icon: arrow-up”]

 

Complete name : UFC.Tuesday.Night.Contender.Series.S04W10.720p.mp4
Format : MPEG-4
Format profile : Base Media
Codec ID : isom
File size : 3.55 GiB
Duration : 2 h 41 min
Overall bit rate mode : Variable
Overall bit rate : 3 142 kb/s
Writing application : Lavf58.12

UFC Tuesday Night Contender Series

Video
ID : 1
Format : AVC
Duration : 2 h 41 min
Bit rate mode : Variable
Bit rate : 3 002 kb/s
Maximum bit rate : 3 159 kb/s
Width : 1 280 pixels
Height : 720 pixels
Display aspect ratio : 16:9
Frame rate mode : Variable
Frame rate : 30.000 FPS
Standard : NTSC
Color space : YUV
Chroma subsampling : 4:2:0
Bit depth : 8 bits
Scan type : Progressive
Bits/(Pixel*Frame) : 0.109
Stream size : 3.40 GiB (96%)
Color primaries : BT.709
Transfer characteristics : BT.709
Matrix coefficients : BT.709
Codec configuration box : avc

UFC Tuesday Night Contender Series

Audio
ID : 2
Format : AAC LC
Format/Info : Advanced Audio
Codec ID : mp4a-40-2
Duration : 2 h 41 min
Bit rate mode : Constant
Bit rate : 132 kb/s
Channel(s) : 2 channels
Channel layout : L R
Sampling rate : 48.0 kHz
Frame rate : 46.875 FPS
Compression mode : Lossy
Stream size : 153 MiB (4%)
Default : Yes
Alternate group : 1

 Tuesday Night Contender Series

Complete name : UFC.Tuesday.Night.Contender.Series.S04W10.mp4
Format : MPEG-4
Format profile : Base Media
Codec ID : isom
File size : 1.33 GiB
Duration : 2 h 41 min
Overall bit rate mode : Variable
Overall bit rate : 1 178 kb/s
Writing application : Lavf58.12.100

Video
ID : 1
Format : AVC
Duration : 2 h 41 min
Bit rate mode : Variable
Bit rate : 1 038 kb/s
Maximum bit rate : 1 069 kb/s
Width : 896 pixels
Height : 504 pixels
Display aspect ratio : 16:9
Frame rate mode : Variable
Frame rate : 30.000 FPS
Standard : NTSC
Color space : YUV
Chroma subsampling : 4:2:0
Bit depth : 8 bits
Scan type : Progressive
Bits/(Pixel*Frame) : 0.077
Stream size : 1.17 GiB
Color primaries : BT.709
Transfer characteristics : BT.709
Matrix coefficients : BT.709
Codec configuration box : avc

UFC Tuesday Night Contender Series

Audio
ID : 2
Format : AAC LC
Format/Info : Advanced Audio
Codec ID : mp4a-40-2
Duration : 2 h 41 min
Bit rate mode : Constant
Bit rate : 132 kb/s
Channel(s) : 2 channels
Channel layout : L R
Sampling rate : 48.0 kHz
Frame rate : 46.875 FPS
Compression mode : Lossy
Stream size : 153 MiB
Default : Yes
Alternate group : 1

 

 

Watch Online UFC Tuesday Night Contender Series S04W10

 

 

[/su_expand]

 

 

Watch online

 

 

Server 1

 

 

 

 

 

 

 

 

Server-2

 

UFC Tuesday Night Contender Series

 

 

 

 

 

 

Server–3

 

 

 

 

 

 

 

 

Uploaded By Site DX-TV.com

 

 

 

 

Download Free Links with normal and high Speed [ more 14 hosts ]  

 

[su_expand more_text=”Show Hosts Info” less_text=”Close all Info” height=”30″ text_color=”#000000″ link_color=”#e25f8b” link_style=”button” more_icon=”icon: arrow-down” less_icon=”icon: arrow-up”]

UFC Tuesday Night Contender Series

 

hexupload.net – clicknupload.co – www.multiup.org

– uptobox.com – anonfiles.com – userscloud.com –

 

 

[/su_expand]

 

http://shrt10.com/L9CfB9D8
http://shrt10.com/ZNZN7r3ul
http://shrt10.com/Tm6Cku
http://shrt10.com/oHEwWAB
http://shrt10.com/a8HJ1
http://shrt10.com/z9UEuDGl

 

 

 

 

 

Download Links with premium High Speed   

 

 

UFC Tuesday Night Contender Series

 

dropapk.to

 

 

 

nitroflare.com

http://shrt10.com/5JnqXw
http://shrt10.com/UHTYmM

 

 

rapidgator.net

http://shrt10.com/iLJ3anJcT
http://shrt10.com/AhgnXy

 

 

uploaded.net

 

 

 

uploadgig.com

 

 

 

 

 

dx-tv.com

 

urlfree.net

Leave a Reply

Your email address will not be published. Required fields are marked *

This site uses Akismet to reduce spam. Learn how your comment data is processed.