Watch Online UFC Polaris 12

Watch Online UFC Polaris 12 DX-TV

 

 

 Polaris 12

 

 

 

 

dx-tv.com

 

 

 

 

Watch Online UFC Polaris 12

 

 

 

 

 

Complete name : UFC.Polaris.12.WEB.H264-SHREDDIE.mp4
Format : MPEG-4
Format profile : Base Media
File size : 2.51 GiB
Duration : 2 h 37 min
Overall bit rate : 2 284 kb/s
Writing application : Lavf56.40.101

Video
ID : 1
Duration : 2 h 37 min
Bit rate : 2 177 kb/s
Width : 960 pixels
Height : 540 pixels
Display aspect ratio : 16:9
Frame rate mode : Constant
Frame rate : 29.970 (30000/1001) FPS
Original frame rate : 29.970 (29970/1000) FPS
Color space : YUV
Chroma subsampling : 4:2:0
Bit depth : 8 bits
Scan type : Progressive
Bits/(Pixel*Frame) : 0.140
Stream size : 2.39 GiB (95%)
Codec configuration box : avcC

Audio
ID : 2
Format : AAC LC
Codec ID : mp4a-40-2
Duration : 2 h 37 min
Bit rate mode : Constant
Bit rate : 98.3 kb/s
Channel(s) : 2 channels
Channel layout : L R
Sampling rate : 44.1 kHz
Frame rate : 43.066 FPS (1024 SPF)
Compression mode : Lossy
Stream size : 111 MiB (4%)
Default : Yes
Alternate group : 1

 

 

 

 

 

 

Watch online

 

 

Waiting finish converting video

 

 

Server 1

 

 

 

 

 

 

 

 

 

 

 

 

 

Server 2

 

 

 

 

 

 

 

 

 

 

Server–3

 

 

 

 

 

 

 

 

 

 

Server 4

 

 

 

 

 

 

 

 

 

 

Uploaded By Site DX-TV.com

 

 

 

 

 

Watch Online UFC Polaris 12

 

 

 

 

Download with high speed Premium account

 

 

 

nitroflare.com

 

 

 

rapidgator.net

 

 

 

uploaded.net

 

 

 

 

 

Recommended For Free

 

 

 

 

1fichier.com

 

 

 

anonfile.com

 

 

 

dl.free.fr

 

 

 

Categories

Earn money $25 as per 1000

103