Watch Online UFC 246 720p

Watch Online UFC 246 720p DX-TV

 

 

UFC 246

 

 

 

 

dx-tv.com

 

 

 

 

Watch Online UFC 246 720p

 

 

 

 

 

Complete name : UFC.246.720p.HDTV.x264-VERUM.mkv
Format : Matroska
Format version : Version 4
File size : 4.06 GiB
Duration : 2 h 50 min
Overall bit rate : 3 399 kb/s
Writing application : x264.exe
Writing library : MS-DOS 6.22
Tool : Custom Encoder

Video
ID : 1
Format : AVC
Codec ID : V_MPEG4/ISO/AVC
Duration : 2 h 50 min
Bit rate : 2 947 kb/s
Width : 1 280 pixels
Height : 720 pixels
Display aspect ratio : 16:9
Frame rate mode : Constant
Frame rate : 50.000 FPS
Color space : YUV
Chroma subsampling : 4:2:0
Bit depth : 8 bits
Scan type : Progressive
Bits/(Pixel*Frame) : 0.064
Stream size : 3.52 GiB (87%)
Language : English
Default : Yes

Audio
ID : 2
Format profile : Layer 2
Codec ID : A_MPEG/L2
Codec ID/Hint : MP2
Duration : 2 h 50 min
Bit rate mode : Constant
Bit rate : 384 kb/s
Channel(s) : 2 channels
Sampling rate : 48.0 kHz
Compression mode : Lossy
Stream size : 469 MiB (11%)
Language : English
Default : Yes
Forced : No

 

 

 

 

 

 

Watch online

 

 

Waiting finish converting video

 

 

Server 1

 

 

 

watch now

 

 

Watch Online UFC 246 720p

 

 

 

Uploaded By Site DX-TV.com

 

 

 

 

Download VIP Members FTP server Download 1 Link and Free Links 

 

 

 

Limited Time will be removed after 90 days if you need available again pm email admin

 

[member]

FTP Link Download high speed

[/member]

1fichier.com 

 

 

 

filerio.in

 

 

 

Download with premium account Links 

 

 

nitroflare.com

 

 

rapidgator.net

 

 

uploaded.net

 

 

 

 

 

 

 

 

 

You May Also Like