Watch Online ROH Wrestling 16 Oct 2020 1080p

Online ROH Wrestling 16 Oct 2020 1080p DX-TV

Watch Online Wrestling

 

 Watch Online Wrestling

 

Watch Online ROH Wrestling 16 Oct 2020 1080p

 

 

This week, most of us at Ring of Honor are in the #ROHBubble as we prepare for our next round of TV tapings.

Everyone here has already passed a COVID-19 test and had to take another test Tuesday. Once that test is cleared .

we will be allowed to work on the tapings closer to the end of the week. We all have individual rooms.

There are no roommates and we are not allowed to leave our rooms until we’ve been cleared. 

It’s the same thing we had to do for our last round of TV tapings. For now, this is our new norm. 

Like most of the world, we are having to adjust to a brand new system and set of rules.

Whether we like it or not, it is what it is for the time being.

Watch Online Wrestling

Complete name : ROH.Wrestling.Ep.474.16th.Oct.2020.1080p.WEBRip.h264-TJ.mp4
Format : MPEG-4
Format profile : Base Media
Codec ID : isom
File size : 1.31 GiB
Duration : 50 min 45 s
Overall bit rate mode : Variable
Overall bit rate : 3 696 kb/s
Writing application : Lavf58.51.101

Watch Online Wrestling

Video
ID : 1
Format : AVC
Duration : 50 min 45 s
Bit rate : 3 497 kb/s
Width : 1 920 pixels
Height : 1 080 pixels
Display aspect ratio : 16:9
Frame rate mode : Constant
Frame rate : 29.970 FPS
Color space : YUV
Chroma subsampling : 4:2:0
Bit depth : 8 bits
Scan type : Progressive
Bits/(Pixel*Frame) : 0.056
Stream size : 1.24 GiB (95%)
Codec configuration box : avcC

Watch Online Wrestling

Audio
ID : 2
Format : AAC LC
Format/Info : Advanced
Codec ID : mp4a-40-2
Duration : 50 min 45 s
Bit rate mode : Variable
Bit rate : 192 kb/s
Maximum bit rate : 196 kb/s
Channel(s) : 2 channels
Channel layout : L R
Sampling rate : 48.0 kHz
Frame rate : 46.875 FPS
Compression mode : Lossy
Stream size : 69.6 MiB (5%)
Default : Yes
Alternate group : 1

 

 

 

Watch Online ROH Wrestling 16 Oct 2020 1080p

 

 

 

 

Watch online

 

 

 

 

 

Server 1

 

 

 

 

Watch Online Wrestling

 

 

 

 

Server-2

 

 

 

watch now

 

 

 

 

 

Uploaded By Site DX-TV.com

 

 

 

 

Download Free Links with normal and high Speed [ more 14 hosts ]  

 

 

 

 

http://shrt10.com/hF49Y
http://shrt10.com/OR7WIzLnO
http://shrt10.com/woejWf
http://shrt10.com/weU8O6kTU
http://shrt10.com/nUBmc
http://shrt10.com/pVJcnAEg
http://shrt10.com/kgVrwv80
http://shrt10.com/UwEdwaTs2
http://shrt10.com/bZZVB7DA
http://shrt10.com/wRN3eN
http://shrt10.com/vrAgWhi
http://shrt10.com/z1Iux

 

 

 

Download Links with premium High Speed   

 

 

 

 

dropapk.to

 

 

 

nitroflare.com

 

 

 

rapidgator.net

 

 

 

uploaded.net

 

 

 

uploadgig.com

 

 

 

 

 

dx-tv.com

 

urlfree.net

Leave a Reply

Your email address will not be published. Required fields are marked *

This site uses Akismet to reduce spam. Learn how your comment data is processed.