Watch Online NJPW Wrestle Kingdom 14 2020/01/05 Japan DX-TV

Watch Online NJPW Wrestle Kingdom 14 2020/01/05 Japan DX-TV

 

 

NJPW Wrestle Kingdom 14

 

 

 

 

dx-tv.com

 

 

 

 

Watch Online NJPW Wrestle Kingdom 14 2020/01/05 Japan DX-TV

 

 

Complete name : NJPW Wrestle Kingdom 14 2020-01-05 Japan WEB x264 DX-TV.mp4
Format : MPEG-4
Format profile : Base Media
File size : 4.59 GiB
Duration : 5 h 37 min
Overall bit rate : 1 948 kb/s
Writing application : Lavf58.25.100

Video
ID : 1
Format : AVC
Duration : 5 h 37 min
Bit rate : 1 836 kb/s
Width : 960 pixels
Height : 540 pixels
Display aspect ratio : 16:9
Frame rate mode : Variable
Frame rate : 30.000 FPS
Minimum frame rate : 29.412 FPS
Maximum frame rate : 30.303 FPS
Color space : YUV
Chroma subsampling : 4:2:0
Bit depth : 8 bits
Scan type : Progressive
Bits/(Pixel*Frame) : 0.118
Stream size : 4.32 GiB (94%)
Color range : Limited
Color primaries : BT.601 PAL
Transfer characteristics : BT.601
Codec configuration box : avcC

Audio
ID : 2
Format : AAC LC
Codec ID : mp4a-40-2
Duration : 5 h 37 min
Bit rate mode : Constant
Bit rate : 99.6 kb/s
Channel(s) : 2 channels
Channel layout : L R
Sampling rate : 44.1 kHz
Frame rate : 43.066 FPS (1024 SPF)
Compression mode : Lossy
Stream size : 240 MiB (5%)
Default : Yes
Alternate group : 1

 

 

 

 

 

Watch online

 

 

Waiting finish converting video

 

 

Server 1

 

 

 

 

watch now

 

 

 

 

 

 

Server 2

 

 

 

 

 

Watch Online NJPW Wrestle Kingdom 14 2020/01/05 Japan DX-TV

 

 

 

Uploaded By Site DX-TV.com

 

 

 

 

Download VIP Members FTP Link and Free Links 

 

 

Limited Time will be removed after 30 days if you need available again pm email admin

 

[member]

FTP Link Download high speed

 

 

1fichier.com 

 

 

 

dl.free.fr

 

 

 

[/member]

 

 

Download with premium account Links 

 

 

earn4files.com

 

 

nitroflare.com

 

 

rapidgator.net

 

 

uploaded.net

 

 

 

 

 

 

 

 

 

 136 total views,  4 views today

%d bloggers like this: