Watch Online MLW Fusion on Thanks giving 2019

Watch Online MLW Fusion on Thanks giving 2019 1080p DX-TV

 

 

WWE RAW

 

 

 

 

dx-tv.com

 

 

 

 

Watch Online MLW Fusion on Thanks giving 2019

 

 

 

 

 

Complete name : MLW Fusion on Thanksgiving 1080p.mp4
Format : MPEG-4
Format profile : Base Media
Codec ID : isom (isom/iso2/avc1/mp41)
File size : 1.63 GiB
Duration : 53 min 21 s
Overall bit rate : 4 383 kb/s

Video
ID : 1
Format : AVC
Duration : 53 min 21 s
Bit rate : 4 247 kb/s
Width : 1 920 pixels
Height : 1 080 pixels
Display aspect ratio : 16:9
Frame rate mode : Constant
Frame rate : 30.000 FPS
Color space : YUV
Chroma subsampling : 4:2:0
Bit depth : 8 bits
Scan type : Progressive
Bits/(Pixel*Frame) : 0.068
Stream size : 1.58 GiB (97%)
Color range : Limited
Color primaries : BT.709
Transfer characteristics : BT.709
Matrix coefficients : BT.709
Codec configuration box : avcC

Audio
ID : 2
Format : AAC LC
Format/Info : Advanced Audio Codec Low Complexity
Codec ID : mp4a-40-2
Duration : 53 min 21 s
Bit rate mode : Constant
Bit rate : 128 kb/s
Channel(s) : 2 channels
Channel layout : L R
Sampling rate : 44.1 kHz
Frame rate : 43.066 FPS (1024 SPF)
Compression mode : Lossy
Stream size : 48.9 MiB (3%)
Alternate group : 1

 

 

 

 

 

 

Watch online

 

 

Server 1

 

 

 

 

 

 

 

 

 

 

 

 

Server 2

 

 

 

 

 

 

 

 

 

 

 

 

 

 

 

Uploaded By Site DX-TV.com

 

 

 

 

 

Watch Online MLW Fusion on Thanks giving 2019

 

 

 

 

 

 

Recommended For Free

 

 

 

 

earn4files.com

 

 

katfile.com

 

 

 

 

Download with high speed Premium account

 

 

 

 

nitroflare.com

 

 

 

rapidgator.net

 

 

uploaded.net

 

 

 

 

 

 

 

 

 

 

Categories

Earn money $25 as per 1000

103