Watch Online Impact Wrestling This Is Bound For Glory 2020

Impact Wrestling This Is Bound For Glory 2020 10 23 DX-TV

 

Watch Online Impact Wrestling

 

 Watch Online Impact Wrestling

 

Watch Online Impact Wrestling This Is Bound For Glory 2020

 

 Online Impact Wrestling

Complete name : This Is Bound For Glory 2020 10 23 720p DX-TV.com.mp4
Format : MPEG-4
Format profile : Base Media
Codec ID : isom
File size : 674 MiB
Duration : 43 min 1 s
Overall bit rate : 2 192 kb/s
Writing application : Lavf58.45

Video
ID : 1
Format : AVC
Duration : 43 min 0 s
Bit rate : 1 993 kb/s
Width : 1 280 pixels
Height : 720 pixels
Display aspect ratio : 16:9
Frame rate mode : Constant
Frame rate : 29.970 FPS
Color space : YUV
Chroma subsampling : 4:2:0
Bit depth : 8 bits
Scan type : Progressive
Bits/(Pixel*Frame) : 0.072
Stream size : 613 MiB (91%)
Color range : Limited
Color primaries : BT.709
Transfer characteristics : BT.709
Matrix coefficients : BT.709
Codec configuration box : avcC

Audio
ID : 2
Format : AAC LC
Format/Info : Advanced Audio
Codec ID : mp4a-40-2
Duration : 43 min 1 s
Bit rate mode : Constant
Bit rate : 192 kb/s
Channel(s) : 2 channels
Channel layout : L R
Sampling rate : 48.0 kHz
Frame rate : 46.875 FPS
Compression mode : Lossy
Stream size : 58.8 MiB (9%)
Default : Yes
Alternate group : 1

 

 

 

Watch Online Impact Wrestling This Is Bound For Glory 2020

 

 

 

 

Watch online

 

 

 

 

 

Server 1

 

 

 

 

Watch Online Impact Wrestling

 

 

 

 

Server-2

 

 

 

watch now

 

 

 

 

Server-3

 

 

 

watch now

 

 

 

 

Uploaded By Site DX-TV.com

 

 

 

 

Download Free Links with normal and high Speed [ more 14 hosts ]  

 

[su_expand more_text=”Show Hosts Info” less_text=”Close all Info” height=”30″ text_color=”#000000″ link_color=”#e25f8b” link_style=”button” more_icon=”icon: arrow-down” less_icon=”icon: arrow-up”]

 

hexupload.net – clicknupload.co – www.multiup.org – uptobox.com – anonfiles.com – userscloud.com – 

 

 

[/su_expand]

 

 

 

http://shrt10.com/khW1HMy
http://shrt10.com/qZhhJN
http://shrt10.com/A6C6mgQQ
http://shrt10.com/GEtC8
http://shrt10.com/qS5cQ
http://shrt10.com/qWClQe
http://shrt10.com/fM4jRj
http://shrt10.com/5xoMg1N
http://shrt10.com/pJKQ4
http://shrt10.com/lFG2UX8cy
http://shrt10.com/DVIZEJ

 

 

 

Download Links with premium High Speed   

 

 

 

dropapk.to

 

 

 

nitroflare.com

 

 

 

rapidgator.net

 

 

 

uploaded.net

 

 

 

uploadgig.com

 

 

 

 

 

dx-tv.com

 

urlfree.net

Leave a Reply

Your email address will not be published. Required fields are marked *

This site uses Akismet to reduce spam. Learn how your comment data is processed.