Watch Online DDT New Year Special 2020 01 03

Watch Online DDT New Year Special 2020 01 03 DX-TV

 

 

 

 

 

 

dx-tv.com

 

 

 

 

Watch Online DDT New Year Special 2020 01 03

 

 

 

 

Complete name : 2020.01.03.DDT.New.Year.Special.2020!Web.Me4Life.mp4
Format : MPEG-4
Format profile : Base Media
File size : 2.64 GiB
Duration : 3 h 24 min
Overall bit rate mode : Variable
Overall bit rate : 1 855 kb/s
Writing application : Lavf58.20.100

Video
ID : 1
Format : AVC
Format/Info : Advanced Video Codec
Codec ID : avc1
Codec ID/Info : Advanced Video Coding
Duration : 3 h 24 min
Bit rate : 1 752 kb/s
Width : 960 pixels
Height : 540 pixels
Display aspect ratio : 16:9
Frame rate mode : Variable
Frame rate : 30.000 FPS
Minimum frame rate : 25.000 FPS
Maximum frame rate : 38.462 FPS
Color space : YUV
Chroma subsampling : 4:2:0
Bit depth : 8 bits
Scan type : Progressive
Bits/(Pixel*Frame) : 0.113
Stream size : 2.50 GiB (94%)
Color range : Limited
Color primaries : BT.601 PAL
Transfer characteristics : BT.601
Matrix coefficients : BT.470 System B/G
Codec configuration box : avcC

Audio
ID : 2
Format : AAC LC
Format/Info : Advanced Audio Codec Low Complexity
Codec ID : mp4a-40-2
Duration : 3 h 24 min
Bit rate mode : Variable
Bit rate : 96.0 kb/s
Maximum bit rate : 128 kb/s
Channel(s) : 2 channels
Channel layout : L R
Sampling rate : 44.1 kHz
Frame rate : 43.066 FPS (1024 SPF)
Compression mode : Lossy
Stream size : 140 MiB (5%)
Language : English
Default : Yes
Alternate group : 1

 

 

 

 

 

 

Watch online

 

Server 1

 

 

 

 

 


 

 

 

 

 

 

Server 2

 

 

 

 


 

 

 

 

Server–3

 

 

 

 


 

 

 

 

Watch Online DDT New Year Special 2020 01 03

 

 

 

Uploaded By Site DX-TV.com

 

 

 

 

Download VIP Members FTP Link and Free Links 

 

 

Limited Time will be removed after 30 days if you need available again pm email admin

 

This section is only available to registered users.

 

 

 

1fichier.com 

 

 

dailyuploads.net

 

 

 

Download with premium account Links 

 

 

earn4files.com

 

 

nitroflare.com

 

 

rapidgator.net

 

 

uploaded.net

 

 

 

 

 

 

 

 

 

Categories

ADS



Archives