Watch Online Bar Wrestling 43 2019 09 04

Watch Online Bar Wrestling 43 2019 09 04 720p DX-TV

 

 

wwe raw
 

 

 

 

dx-tv.com

 

 

 

 

Watch Online Bar Wrestling 43 2019 09 04

 

 

 

 

 

Complete name : Bar.Wrestling.43.2019.09.04.The.Wildest.Ride.in.the.Wilderness.720p.WEB.h264-NCMP.mp4
Format : MPEG-4
Format profile : Base Media
Codec ID : isom (isom/iso2/avc1/mp41)
File size : 1.78 GiB
Duration : 1 h 59 min
Overall bit rate : 2 129 kb/s
Writing application : Lavf57.72.101

Video
ID : 1
Format : AVC
Format/Info : Advanced Video Codec
Codec ID/Info : Advanced Video Coding
Duration : 1 h 59 min
Bit rate : 1 928 kb/s
Width : 1 280 pixels
Height : 720 pixels
Display aspect ratio : 16:9
Frame rate mode : Variable
Frame rate : 29.970 FPS
Minimum frame rate : 29.960 FPS
Maximum frame rate : 90 000.000 FPS
Color space : YUV
Chroma subsampling : 4:2:0
Bit depth : 8 bits
Scan type : Progressive
Bits/(Pixel*Frame) : 0.070
Stream size : 1.61 GiB (91%)
Codec configuration box : avcC

Audio
ID : 2
Format : AAC LC
Format/Info : Advanced Audio Codec Low Complexity
Codec ID : mp4a-40-2
Duration : 1 h 59 min
Bit rate mode : Constant
Bit rate : 192 kb/s
Channel(s) : 2 channels
Channel layout : L R
Sampling rate : 48.0 kHz
Frame rate : 46.875 FPS (1024 SPF)
Compression mode : Lossy
Stream size : 164 MiB (9%)
Default : Yes
Alternate group : 1

 

 

 

 

 

 

Watch online

 

 

Waiting finish converting video

 

 

Server 1

 

 

 

 

 

 

 

 

 

 

 

 

 

 

Server 2

 

 

 

 

 

 

 

 

 

 

 

 

 

 

 

Uploaded By Site DX-TV.com

 

 

 

https://shrt10.com
https://shrt10.com

 

 

 


 

 

 

 


 

 

 

Watch Online Bar Wrestling 43 2019 09 04

 

 

 

 

bitster.cz

 

 

 

multiup.org

 

 

 

nitroflare.com

 

 

 

rapidgator.net

 

 

 

uploaded.net

 

 

 

uploadgig.com

 

 

 

 

 

 

Leave a Reply

Your email address will not be published. Required fields are marked *

WhatsApp chat
%d bloggers like this: