Watch Online AEW.DARK 2020 01 07 1080p

Watch Online AEW.DARK 2020 01 07 1080p DX-TV

 

 

aew

 

 

 

 

dx-tv.com

 

 

 

 

Watch Online AEW.DARK 2020 01 07 1080p

 

 

 

 

 

Complete name : AEW.DARK.7th.Jan.2020.1080p.WEBRip.h264-TJ.mp4
Format : MPEG-4
Format profile : Base Media
File size : 1 012 MiB
Duration : 32 min 21 s
Overall bit rate : 4 375 kb/s
Writing application : Lavf58.20.100

Video
ID : 1
Format : AVC
Format/Info : Advanced Video Codec
Codec ID : avc1
Codec ID/Info : Advanced Video Coding
Duration : 32 min 21 s
Duration_FirstFrame : -33 ms
Bit rate : 4 239 kb/s
Width : 1 920 pixels
Height : 1 080 pixels
Display aspect ratio : 16:9
Frame rate mode : Variable
Frame rate : 29.970 (29970/1000) FPS
Minimum frame rate : 29.970 FPS
Maximum frame rate : 29.990 FPS
Color space : YUV
Chroma subsampling : 4:2:0
Bit depth : 8 bits
Scan type : Progressive
Bits/(Pixel*Frame) : 0.068
Stream size : 981 MiB (97%)
Color range : Limited
Color primaries : BT.709
Transfer characteristics : BT.709
Matrix coefficients : BT.709
Codec configuration box : avcC

Audio
ID : 2
Format : AAC LC
Format/Info : Advanced Audio Codec Low Complexity
Codec ID : mp4a-40-2
Duration : 32 min 21 s
Bit rate mode : Constant
Bit rate : 128 kb/s
Channel(s) : 2 channels
Channel layout : L R
Sampling rate : 44.1 kHz
Frame rate : 43.066 FPS (1024 SPF)
Compression mode : Lossy
Stream size : 29.6 MiB (3%)
Default : Yes
Alternate group : 1

 

 

 

 

 

 

Watch online

 

 

Server 1

 

 

 

 

 

 

 

 

 

 

Server 2

 

 

 

 

 

 

 

 

 

 

Server–3

 

 

 

 

 

 

 

 

Watch Online AEW.DARK 2020 01 07 1080p

 

 

 

Uploaded By Site DX-TV.com

 

 

 

 

Download VIP Members FTP Link and Free Links 

 

 

Limited Time will be removed after 30 days if you need available again pm email admin

 

[member]  

 

 

FTP Link Download high speed

 

 

[/member]

 

 

1fichier.com 

 

 

dailyuploads.net

 

 

dl.free.fr

 

 

katfile.com

 

 

rockfile.co

 

 

uploadbank.com 

 

 

 

 

 

Download with premium account Links 

 

 

earn4files.com

 

 

nitroflare.com

 

 

rapidgator.net

 

 

uploaded.net