Watch Online AEW DARK 06 Nov 2020 1080p

Online AEW DARK 06 Nov 2020 1080p DX-TV

Watch Online AEW

 

 Watch Online AEW
 


 

 

Watch Online AEW DARK 06 Nov 2020 1080p

 

 

Complete name : AEW.DARK.6th.Nov.2020.1080p.WEBRip.h264-TJ.mp4
Format : MPEG-4
Format profile : Base Media
Codec ID : isom
File size : 1.77 GiB
Duration : 56 min 55 s
Overall bit rate : 4 461 kb/s
Writing application : Lavf57.83.100

Watch Online AEW

Video
ID : 1
Format : AVC
Duration : 56 min 55 s
Bit rate : 4 326 kb/s
Width : 1 920 pixels
Height : 1 080 pixels
Display aspect ratio : 16:9
Frame rate mode : Constant
Frame rate : 29.970 FPS
Color space : YUV
Chroma subsampling : 4:2:0
Bit depth : 8 bits
Scan type : Progressive
Bits/(Pixel*Frame) : 0.070
Stream size : 1.72 GiB (97%)
Color range : Limited
Color primaries : BT.709
Transfer characteristics : BT.709
Matrix coefficients : BT.709
Codec configuration box : avcC

Watch Online AEW

Audio
ID : 2
Format : AAC LC
Format/Info : Advanced
Codec ID : mp4a-40-2
Duration : 56 min 55 s
Duration Last Frame : 1 ms
Bit rate mode : Constant
Bit rate : 128 kb/s
Channel(s) : 2 channels
Channel layout : L R
Sampling rate : 44.1 kHz
Frame rate : 43.066 FPS
Compression mode : Lossy
Stream size : 52.1 MiB (3%)
Language : English
Default : Yes
Alternate group : 1

 

Earlier in the day, Tony Schiavone interviewed Kenny Omega about his upcoming match at FULL GEAR with “Hangman” Adam Page.

“My former tag team partner is in the finals against me. I’m destined to win the tournament and then become the next AEW World Champion,” said Omega.

Watch Online AEW

Making His Singles Debut in AEW—“The Best Man” Miro (with Kip Sabian & Penelope Ford) vs. Trent (with Chuck Taylor & Orange Cassidy)!

Miro insulted Trent’s mom before the match and Trent cut him off with a dropkick! Miro followed up with a suplex and a side dish of elbows and kicks.

He threw Trent across the ring with a suplex again. On the outside, Chuck Taylor rammed Kip into the arena wall!

Miro charged Trent with a splash into the corner, and then sent Trent up and over with an Irish whip!

 

Watch Online AEW DARK 06 Nov 2020 1080p

 

 

 

Watch online

 

 

 

Server 1

 

 

 

 

watch now

 

 

 

 

Server-2

 

 

 

watch now

 

 

 

 

 

 

Uploaded By Site DX-TV.com

 

 

 

 

Download Free Links with normal and high Speed [ more 14 hosts ]  

 

[su_expand more_text=”Show Hosts Info” less_text=”Close all Info” height=”30″ text_color=”#000000″ link_color=”#e25f8b” link_style=”button” more_icon=”icon: arrow-down” less_icon=”icon: arrow-up”]

 

 

hexupload.net – clicknupload.co – www.multiup.org – uptobox.com – anonfiles.com – userscloud.com –

dropapk.to alfafile.net – ddownload.com – rockfile.co – 1fichier.com – filedown.org – katfile.com – filerio.in

 

 

[/su_expand]

 

 

 

http://shrt10.com/vSCdukYy
http://shrt10.com/QKOjFf
http://shrt10.com/mdEnozvD0
http://shrt10.com/uNeuEzk
http://shrt10.com/JrlWjat
http://shrt10.com/Wv6y5XEn
http://shrt10.com/K06p0g
http://shrt10.com/y2L3aV

 

 

 

Download Links with premium High Speed   

 

 

 

 

dropapk.to

 

 

 

nitroflare.com

 

 

 

rapidgator.net

 

 

 

uploaded.net

 

 

 

uploadgig.com

 

 

 

 

 

dx-tv.com

 

urlfree.net

Leave a Reply

Your email address will not be published. Required fields are marked *

This site uses Akismet to reduce spam. Learn how your comment data is processed.