Watch One Championship Unbreakable II 2021 1080p DX-TV

Watch One Championship Unbreakable II 2021 720p / 1080p Star DX-TV

Watch One Championship Unbreakable II

 Watch One Championship Unbreakable II

 

Download Links with premium High Speed   

 

 

dropapk.to

http://shrt10.com/wxJJ8j3
http://shrt10.com/d4eYL
http://shrt10.com/7ktmI5D

 

 

nitroflare.com

http://shrt10.com/njcuI
http://shrt10.com/JDAKmSRx
http://shrt10.com/UJaIyzs

 

 

rapidgator.net

http://shrt10.com/pzUgAndt
http://shrt10.com/zloIuEK
http://shrt10.com/Tv3Lq

 

 

uploaded.net

http://shrt10.com/yxzea6
http://shrt10.com/j6fCmj0W

 

 

 

Watch One Championship Unbreakable II online

 

Server 1

 

 

 

 

Watch One Championship Unbreakable II

 

 

 

 

Server-2

 

 

 

 

watch now

 

 

Uploaded By Site DX-TV.com

 

 

Complete name : One.Championship.UnbreakableII.720p.HDTV.x264-Star.mkv
Format : Matroska
Format version : Version 4
File size : 4.36 GiB
Duration : 2 h 31 min
Overall bit rate : 4 129 kb/s

Video
ID : 1
Format : AVC
Format/Info : Advanced Video
Duration : 2 h 31 min
Bit rate : 4 000 kb/s
Width : 1 280 pixels
Height : 720 pixels
Display aspect ratio : 16:9
Frame rate mode : Constant
Frame rate : 29.970 (30000/1001) FPS
Color space : YUV
Chroma subsampling : 4:2:0
Bit depth : 8 bits
Scan type : Progressive
Bits/(Pixel*Frame) : 0.145
Stream size : 4.14 GiB (95%)
Forced : No
Color range : Limited
Color primaries : BT.709
Transfer characteristics : BT.709
Matrix coefficients : BT.709

One Championship Unbreakable II

Audio
ID : 2
Format : AC-3
Format/Info : Audio Coding 3
Commercial name : Dolby Digital
Codec ID : A_AC3
Duration : 2 h 31 min
Bit rate mode : Constant
Bit rate : 128 kb/s
Channel(s) : 2 channels
Channel layout : L R
Sampling rate : 48.0 kHz
Frame rate : 31.250 FPS (1536 SPF)
Compression mode : Lossy
Delay relative to video : -5 ms
Stream size : 139 MiB (3%)
Title : Stereo
Service kind : Complete Main
Default : Yes
Forced : No

Complete name : One.Championship.UnbreakableII.1080p.HDTV.x264-Star.mkv
Format : Matroska
Format version : Version 4
File size : 8.59 GiB
Duration : 2 h 31 min
Overall bit rate : 8 128 kb/s

One Championship Unbreakable II

Video
ID : 1
Format : AVC
Format/Info : Advanced Video
Codec ID : V_MPEG4/ISO/AVC
Duration : 2 h 31 min
Bit rate : 8 000 kb/s
Width : 1 920 pixels
Height : 1 080 pixels
Display aspect ratio : 16:9
Frame rate mode : Constant
Frame rate : 29.970 (30000/1001) FPS
Color space : YUV
Chroma subsampling : 4:2:0
Bit depth : 8 bits
Scan type : Progressive
Bits/(Pixel*Frame) : 0.129
Stream size : 8.28 GiB (96%)
Forced : No
Color range : Limited
Color primaries : BT.709
Transfer characteristics : BT.709
Matrix coefficients : BT.709

One Championship Unbreakable II

Audio
ID : 2
Format : AC-3
Format/Info : Audio Coding 3
Commercial name : Dolby Digital
Codec ID : A_AC3
Duration : 2 h 31 min
Bit rate mode : Constant
Bit rate : 128 kb/s
Channel(s) : 2 channels
Channel layout : L R
Sampling rate : 48.0 kHz
Frame rate : 31.250 FPS (1536 SPF)
Compression mode : Lossy
Delay relative to video : -5 ms
Stream size : 139 MiB (2%)
Title : Stereo
Service kind : Complete Main
Default : Yes
Forced : No

Complete name : One.Championship.UnbreakableII.720p.HDTV.x264-Star.mkv
Format : Matroska
Format version : Version 4
File size : 4.36 GiB
Duration : 2 h 31 min
Overall bit rate : 4 129 kb/s

Video
ID : 1
Format : AVC
Format/Info : Advanced Video
Duration : 2 h 31 min
Bit rate : 4 000 kb/s
Width : 1 280 pixels
Height : 720 pixels
Display aspect ratio : 16:9
Frame rate mode : Constant
Frame rate : 29.970 (30000/1001) FPS
Color space : YUV
Chroma subsampling : 4:2:0
Bit depth : 8 bits
Scan type : Progressive
Bits/(Pixel*Frame) : 0.145
Stream size : 4.14 GiB (95%)
Color range : Limited
Color primaries : BT.709
Transfer characteristics : BT.709
Matrix coefficients : BT.709

One Championship Unbreakable II

Audio
ID : 2
Format : AC-3
Format/Info : Audio Coding 3
Commercial name : Dolby Digital
Codec ID : A_AC3
Duration : 2 h 31 min
Bit rate mode : Constant
Bit rate : 128 kb/s
Channel(s) : 2 channels
Channel layout : L R
Sampling rate : 48.0 kHz
Frame rate : 31.250 FPS (1536 SPF)
Compression mode : Lossy
Delay relative to video : -5 ms
Stream size : 139 MiB (3%)
Title : Stereo
Service kind : Complete Main
Default : Yes
Forced : No

 

 

https://dx-tv.com/

You May Also Like

Leave a Reply

Your email address will not be published. Required fields are marked *

This site uses Akismet to reduce spam. Learn how your comment data is processed.