Watch One Championship No Surrender 1080p 31 July 2020

Watch Online One Championship No Surrender 1080p 31 July 2020 DX-TV

 

One Championship No Surrender
 One Championship No Surrender

Watch Online One Championship No Surrender 1080p 31 July 2020

 

 

 

Complete name :One.Championship.No.Surrender.1080p.WEBRip.h264-TJ.mp4
Format : MPEG-4
Format profile : Base Media
Codec ID : isom
File size : 4.27 GiB
Duration : 2 h 34 min
Overall bit rate : 3 950 kb/s
Writing application : Lavf One Championship No Surrender

 One Championship No Surrender 1080p 31 July 2020

Video
ID : 1
Format : AVC
Duration : 2 h 34 min
Bit rate : 3 815 kb/s
Width : 1 920 pixels
Height : 1 080 pixels
Display aspect ratio : 16:9
Frame rate mode : Variable
Frame rate : 25.000 FPS
Minimum rate : 25.000 FPS
Color space : YUV One Championship No Surrender
Chroma sub sampling : 4:2:0
Bit depth : 8 bits
Scan type : Progressive
Bits/(Pixel*Frame) : 0.074
Stream size : 4.13 GiB (97%)
Color range : Limited
Color primaries : BT.709
Transfer characteristics : BT.709
Matrix coefficients : BT.709
Codec configuration box : avcC

One Championship No Surrender 

Audio
ID : 2
Format : AAC LC
Format/Info : Advanced
Codec ID : mp4a-40-2
Duration : 2 h 34 min
Bit rate mode : Constant
Bit rate : 128 kb/s
Channel(s) : 2 channels One Championship No Surrender
Channel layout : L R
Sampling rate : 44.1 kHz
Frame rate : 43.066 FPS (1024 SPF)
Compression mode : Lossy
Stream size : 142 MiB (3%)
Default : Yes
Alternate group : 1

Watch One Championship No Surrender 1080p 31 July 2020

In the co-main event, featherweight action saw champ Phetmorakot Petchyindee Academy put his title on the line against Yodsanklai Fairtex.

Challenger “Yod” was a former WBC Muay Thai World Super welterweight known as “the boxing computer” for his tight technique.

Phetmorakot Petchyindee Academy meanwhile was the inaugural and reigning featherweight Muay Thai champ in ONE,

and was making his first title defense.

The main event saw flyweight Muay Thai champ Rodtang Jitmuangnon in his third title defense. With over 260 wins to his name,

Jitmuangnon was actually looking to bounce back from a loss outside ONE.

Challenger Petchdam Petchyindee Academy was a former ONE kickboxing champ.

The pair had met twice before, with the series tied one apiece.

 

Watch Online One Championship No Surrender 1080p 31 July 2020

 

 

 

Watch online

 

 

Server 1

 

 

 

 

watch now

 

 

 

 

Server 2

 

 

 

One Championship No Surrender

 

 

 

Server-3

 

 

 

watch now

 

 

 

Uploaded By Site DX-TV.com

 

 

 

Download with premium account Links 

 

 

Keep2Share

 

 

nitroflare.com

 

 

rapidgator.net

 

 

uploadgig.com

 

 

 

dx-tv.com

 

urlfree.net

 44 total views,  7 views today

Leave a Reply

Your email address will not be published. Required fields are marked *

This site uses Akismet to reduce spam. Learn how your comment data is processed.

%d bloggers like this: