Watch One Championship A New Tomorrow 2020/01/10 DX-TV

Watch One Championship A New Tomorrow 2020/01/10 DX-TV

 

 

wwe raw

 

 

 

 

dx-tv.com

 

 

 

 

Watch One Championship A New Tomorrow 2020/01/10 DX-TV

 

 

 

 

 
Complete name : One.Championship.A.New.Tomorrow.Full.Event.WEBRip.h264-TJ.mp4
Format : MPEG-4
Format profile : Base Media
File size : 1.79 GiB
Duration : 3 h 58 min
Overall bit rate : 1 070 kb/s
Writing application : Lavf58.35.101

Video
ID : 1
Format : AVC
Duration : 3 h 58 min
Bit rate : 936 kb/s
Width : 854 pixels
Height : 480 pixels
Display aspect ratio : 16:9
Frame rate mode : Constant
Frame rate : 25.000 FPS
Color space : YUV
Chroma subsampling : 4:2:0
Bit depth : 8 bits
Scan type : Progressive
Bits/(Pixel*Frame) : 0.091
Stream size : 1.56 GiB (87%)
Title : ISO Media file produced by Google Inc.
Color range : Limited
Color primaries : BT.709
Transfer characteristics : BT.709
Matrix coefficients : BT.709
Codec configuration box : avcC

Audio
ID : 2
Format : AAC LC
Codec ID : mp4a-40-2
Duration : 3 h 58 min
Bit rate mode : Constant
Bit rate : 128 kb/s
Channel(s) : 2 channels
Channel layout : L R
Sampling rate : 44.1 kHz
Frame rate : 43.066 FPS (1024 SPF)
Compression mode : Lossy
Stream size : 219 MiB (12%)
Default : Yes
Alternate group : 1

 

 

 

 

 

 

Watch online

 

 

 

Server 1

 

 

 

 

 

 

 

 

 

 

 

Server 2

 

 

 

 

 

 

 

 

 

 

Server–3

 

 

 

 

 

 

 

 

 

Watch One Championship A New Tomorrow 2020/01/10 DX-TV

 

 

 

Uploaded By Site DX-TV.com

 

 

 

 

 

Download VIP Members FTP server Download 1 Link and Free Links 

 

 

 

Limited Time will be removed after 90 days if you need available again pm email admin

 

This section is only available to registered users.

 

1fichier.com 

 

 

dailyuploads.net

 

 

dl.free.fr

 

 

earn4files.com

 

 

Download with premium account Links 

 

 

nitroflare.com

 

 

rapidgator.net

 

 

uploaded.net

 

 

 

 

 

 

 

 

 

Categories



Archives