Watch One Championship 95 2019/05/10 720p HD free full show online

 

 

 

 


 

 

 

dx-tv.com

 

 

 

 

Complete name : One.Championship.Warriors.of.Light.Full.Event.720p.WEBRip.h264-TJ.mp4
Format : MPEG-4
Format profile : Base Media / Version 2
Codec ID : mp42 (isom/mp42)
File size : 4.72 GiB
Duration : 5 h 18 min
Overall bit rate mode : Variable
Overall bit rate : 2 127 kb/s
Encoded date : UTC 2019-05-10 19:06:00
Tagged date : UTC 2019-05-10 19:06:00

Video
ID : 1
Format : AVC
Format/Info : Advanced Video Codec
Codec ID : avc1
Codec ID/Info : Advanced Video Coding
Duration : 5 h 18 min
Bit rate : 1 995 kb/s
Width : 1 280 pixels
Height : 720 pixels
Display aspect ratio : 16:9
Frame rate mode : Constant
Frame rate : 25.000 FPS
Color space : YUV
Chroma subsampling : 4:2:0
Bit depth : 8 bits
Scan type : Progressive
Bits/(Pixel*Frame) : 0.087
Stream size : 4.43 GiB (94%)
Encoded date : UTC 2019-05-10 19:06:00
Tagged date : UTC 2019-05-10 19:06:00
Color range : Limited
Color primaries : BT.709
Transfer characteristics : BT.709
Matrix coefficients : BT.709
Codec configuration box : avcC

Audio
ID : 2
Format : AAC LC
Format/Info : Advanced Audio Codec Low Complexity
Codec ID : mp4a-40-2
Duration : 5 h 18 min
Bit rate mode : Variable
Bit rate : 128 kb/s
Channel(s) : 2 channels
Channel layout : L R
Sampling rate : 44.1 kHz
Frame rate : 43.066 FPS (1024 SPF)
Compression mode : Lossy
Stream size : 291 MiB (6%)
Encoded date : UTC 2019-05-10 19:06:00
Tagged date : UTC 2019-05-10 19:06:00

 

 

 

 

 


 

 

 

Watch One Championship 95 2019/05/10 720p HD free full show online

 

 

 

 

Watch online

 

 

Waiting finish converting video

 

 

Server 1

 

 

 

 

 


 

 

 

 

 

 


 

 

Server 2

 

 

 

 


 

 

 

 

 


 

 

 

Uploaded By Site DX-TV.com

 

 

 

open rar file to see this password

 

 

 

 

The password : DX-TV.com

 

 

 


 

 

 

https://shrt10.com/D2I7
 

 

https://shrt10.com/3ftyCwGo
 

 

https://shrt10.com/CmVn
 

 

https://shrt10.com/fXhDywbd
 

 

https://shrt10.com/5lBaXh
 

 

https://shrt10.com/eqVjR
 

 

https://shrt10.com/N2R9Wix3
 

 

https://shrt10.com/R2sM

 

 

 

 

Watch One Championship 95 2019/05/10 720p HD free full show online