Watch ONE Championship 83 Heart of the Lion Prelims 720p WEB DL

Watch ONE Championship 83 Heart of the Lion Prelims 720p WEB DL

 

 

 

 


 

 

 

dx-tv.com

 

 

 

 

 

Complete name : ONE.Championship.83.Heart.of.the.Lion.Prelims.720p.WEB.DL.x264-RM.mp4
Format : MPEG-4
Format profile : Base Media
Codec ID : isom
File size : 1.45 GiB
Duration : 2h 29mn
Overall bit rate : 1 383 Kbps
Writing application : Lavf56.40.101

Video
ID : 1
Format : AVC
Format/Info : Advanced Video Codec
Codec ID/Info : Advanced Video Coding
Duration : 2h 29mn
Bit rate mode : Variable
Bit rate : 1 312 Kbps
Width : 1 280 pixels
Height : 720 pixels
Display aspect ratio : 16:9
Frame rate mode : Variable
Frame rate : 30.000 fps
Minimum frame rate : 29.412 fps
Maximum frame rate : 16 000.000 fps
Color space : YUV
Chroma subsampling : 4:2:0
Bit depth : 8 bits
Scan type : Progressive
Bits/(Pixel*Frame) : 0.047
Stream size : 1.37 GiB (95%)

Audio
ID : 2
Format : AAC
Duration : 2h 29mn
Bit rate mode : Constant
Bit rate : 64.0 Kbps
Compression mode : Lossy
Stream size : 68.5 MiB (5%)

 

Watch ONE Championship 83 Heart of the Lion Prelims 720p WEB DL

 

 

Watch online

 

 

Waiting finish converting video

 

 

Server 1

 

 

 

 

 

 

 

 

 

 

 

 

 

 

 

Server 2

 

 

 

 

 

 

 


 

 

 

 

 

Uploaded By Site DX-TV.com

 

 

 

open rar file to see this password

 

 

 

 

The password : DX-TV.com

 

 

 

 

Uploaded.net + rapidgator.net

 

 

 

 

 

http://shrt10.com/2OWTE

 

 

 

 
http://shrt10.com/sDWsr
 

 

 

 

 

Watch ONE Championship 83 Heart of the Lion Prelims 720p WEB DL