Watch ONE Championship 83 Heart of the Lion 720p WEB DL

Watch ONE Championship 83 Heart of the Lion 720p WEB DL

 

 

 

 


 

 

 

dx-tv.com

 

 

 

 

 

Complete name : ONE.Championship.83.Heart.of.the.Lion.720p.WEB.DL.x264-RM.mp4
Format : MPEG-4
Format profile : Base Media
Codec ID : mp42
File size : 4.95 GiB
Duration : 5h 36mn
Overall bit rate : 2 108 Kbps
Encoded date : UTC 2018-11-09 19:58:51
Tagged date : UTC 2018-11-09 19:58:51
gsst : 0
gstd : 20187162

Video
ID : 1
Format : AVC
Format/Info : Advanced Video Codec
Codec ID/Info : Advanced Video Coding
Duration : 5h 36mn
Bit rate mode : Variable
Bit rate : 1 977 Kbps
Width : 1 280 pixels
Height : 720 pixels
Display aspect ratio : 16:9
Frame rate mode : Variable
Frame rate : 25.000 fps
Minimum frame rate : 16.667 fps
Maximum frame rate : 25.000 fps
Color space : YUV
Chroma subsampling : 4:2:0
Bit depth : 8 bits
Scan type : Progressive
Bits/(Pixel*Frame) : 0.086
Stream size : 4.65 GiB (94%)

Audio
ID : 2
Format : AAC
Format/Info : Advanced Audio Codec
Format profile : LC
Codec ID : 40
Duration : 5h 36mn
Bit rate mode : Variable
Bit rate : 128 Kbps
Channel(s) : 2 channels
Channel positions : Front: L R
Sampling rate : 44.1 KHz
Compression mode : Lossy
Stream size : 308 MiB (6%)
Encoded date : UTC 2018-11-09 19:58:51
Tagged date : UTC 2018-11-09 19:58:51

 

 

Watch ONE Championship 83 Heart of the Lion 720p WEB DL

 

 

 

 

Watch online

 

 

Waiting finish converting video

 

 

Server 1

 

 

 

 

 

 

 

 

 

 

 

 

 

 

 

 

Server 2

 

 

 

 

 

 

 

 

 

 

 

 

 

Uploaded By Site DX-TV.com

 

 

open rar file to see this password

 

 

The password : DX-TV.com

 

 

 

 

Uploaded.net + rapidgator.net

 

 

 

 

 

http://shrt10.com/TxxTtqQF
 

 

 
http://shrt10.com/W1LBMLY
 

 

 
http://shrt10.com/3sAD9s
 

 

 
http://shrt10.com/Cf3K0T
 

 

 

 

 

 

 

 

Watch ONE Championship 83 Heart of the Lion 720p WEB DL