Watch NXT UK 2020 10 08 1080p WWE Full Show Online

WWE NXT UK 2020 10 08 1080p Full Show OnlineDX-TV

 

Watch WWE NXT UK

 

 Watch WWE NXT
 


 

 

Watch WWE NXT UK 2020 10 08 1080p Full Show Online

 

Complete name : WWE.NXT.UK.2020.10.08.1080p.WEB.h264-HEEL.mp4
Format : MPEG-4
Format profile : Base Media
Codec ID : isom
File size : 2.23 GiB
Duration : 55 min 36 s
bit rate mode : Variable
Overall bit rate : 5 738 kb/s
application : Lavf58.32.104

Watch WWE NXT UK

Video
ID : 1
Format : AVC
Duration : 55 min 36 s
Bit rate : 5 602 kb/s
Width : 1 920 pixels
Height : 1 080 pixels
Display aspect ratio : 16:9
Frame rate mode : Variable
Frame rate : 30.000 FPS
Color space : YUV
Chroma : 4:2:0
Bit depth : 8 bits
Scan type : Progressive
Bits/(Pixel*Frame) : 0.090
Stream size : 2.18 GiB (98%)
Codec configuration box : avcC

Watch WWE NXT UK

Audio
ID : 2
Format : AAC LC
Format/Info : Advanced Audio
Codec ID : mp4a-40-2
Duration : 55 min 36 s
Bit rate mode : Variable
Bit rate : 125 kb/s
Maximum bit rate : 131 kb/s
Channel(s) : 2 channels
Channel layout : L R
Sampling rate : 48.0 kHz
Frame rate : 46.875 FPS (1024 SPF)
Compression mode : Lossy
Stream size : 49.9 MiB (2%)
Default : Yes
Alternate group : 1

Watch WWE NXT UK

Text #1
ID : 1-CC1
Format : EIA-608
Muxing mode : SCTE 128 / DTVCC Transport
Muxing mode, more info : Muxed in Video #1
Duration : 55 min 36 s
Bit rate mode : Constant
Stream size : 0.00 Byte (0%)
CaptionServiceName : CC1

Text #2
ID : 1-CC3
Format : EIA-608
Muxing mode : SCTE 128 / DTVCC Transport
Muxing mode, more info : Muxed in Video #1
Duration : 55 min 36 s
Bit rate mode : Constant
Stream size : 0.00 Byte (0%)
CaptionServiceName : CC3

Watch WWE NXT UK

Text #3
ID : 1-1
Format : EIA-708
Muxing mode : SCTE 128 / DTVCC Transport
Muxing mode, more info : Muxed in Video #1
Duration : 55 min 36 s
Bit rate mode : Constant
Stream size : 0.00 Byte (0%)

Watch WWE NXT UK

A-Kid def. Flash Morgan Webster in a Heritage Cup Opening Round Match

A-Kid dug deep for an impressive come-from-behind victory to vault to the second round of the Heritage Cup Tournament. Flash Morgan Webster seized a 1-0 advantage early in the second round after getting the better of a series of pinfall counters. He nearly squashed A-Kid’s dreams altogether in the next round as well, hitting a poison-rana, but he was unable to take advantage as time ran out.

A-Kid evened the tally at 1 following a massive Spanish Fly and huge thrust kick in Round 4 before claiming victory a round later, forcing Webster to submit to an armbar. 

 

Watch WWE NXT UK 2020 10 08 1080p Full Show Online

 

 

 

 

Watch online

 

 

 

 

 

Server 1

 

 

 

 

watch now

 

 

 

 

Server-2

 

 

 

watch now

 

 

 

 

Server-3

 

 

 

watch now

 

 

 

 

Uploaded By Site DX-TV.com

 

 

 

 

Download Free Links with normal and high Speed [ more 14 hosts ]  

 

 

 

http://shrt10.com/m7k8te
http://shrt10.com/QjwsCO1
http://shrt10.com/KzBZuFPAp
http://shrt10.com/QnJMbfI1
http://shrt10.com/nnusN
http://shrt10.com/WvDMx03kS
http://shrt10.com/Zpc7wNZ
http://shrt10.com/3HaKe2
http://shrt10.com/uJ7jY7zsD

 

 

 

 

Download Links with premium High Speed   

 

 

 

nitroflare.com

 

 

 

rapidgator.net

 

 

 

uploaded.net

 

 

 

uploadgig.com

 

 

 

 

 

dx-tv.com

 

urlfree.net

Leave a Reply

Your email address will not be published. Required fields are marked *

This site uses Akismet to reduce spam. Learn how your comment data is processed.