Watch NWA Shockwave 2020 12 22 S01E04 720p DX-TV

Watch NWA Shockwave 2020 12 22 S01E04 720p DX-TV

Watch NWA Shockwave

 Watch NWA Shockwave

 

Download Links with premium High Speed   

 

 

nitroflare.com

http://shrt10.com/7TGSqiNib

 

 

rapidgator.net

http://shrt10.com/4jvl4Dw

 

 

uploaded.net

http://shrt10.com/Dmj5v1

 

 

uploadgig.com

http://shrt10.com/IRoDPof

 

Watch online

 

Server 1

 

 

 

 

Watch NWA Shockwave

 

 

 

 

Server-2

 

 

 

 

watch now

 

 

Uploaded By Site DX-TV.com

 

 

 

[su_expand more_text=”Show More Info” less_text=”Close all Info” height=”50″ text_color=”#000000″ link_color=”#e25f8b” link_style=”button” more_icon=”icon: arrow-down” less_icon=”icon: arrow-up”]

Complete name : NWA Shockwave S01E04 2020-12-22 720p AVCHD-SC-SDH.mp4
Format : MPEG-4
Format profile : Base Media
Codec ID : isom
File size : 1.95 GiB
Duration : 59 min 5 s
Overall bit rate mode : Variable
Overall bit rate : 4 721 kb/s
Writing application : Lavf54.63.104

Watch NWA Shockwave

Video
ID : 1
Format : AVC
Duration : 59 min 5 s
Bit rate mode : Variable
Bit rate : 4 331 kb/s
Maximum bit rate : 8 400 kb/s
Width : 1 280 pixels
Height : 720 pixels
Display aspect ratio : 16:9
Frame rate mode : Variable
Maximum frame rate : 30.000 FPS
Color space : YUV
Chroma subsampling : 4:2:0
Bit depth : 8 bits
Scan type : Progressive
Bits/(Pixel*Frame) : 0.157
Stream size : 1.79 GiB (92%)
Color range : Limited
Color primaries : BT.709
Transfer characteristics : BT.709
Matrix coefficients : BT.709
Codec configuration box : avc

Watch NWA Shockwave

Audio
ID : 2
Format : AAC LC
Format/Info : Advanced Audio
Codec ID : mp4a-40-2
Duration : 59 min 5 s
Duration_LastFrame : -21 ms
Bit rate mode : Variable
Bit rate : 384 kb/s
Channel(s) : 2 channels
Channel layout : L R
Sampling rate : 48.0 kHz
Frame rate : 46.875 FPS (1024 SPF)
Compression mode : Lossy
Stream size : 161 MiB (8%)
Language : English
Default : Yes
Alternate group : 1

Watch NWA Shockwave

Format : AVC
Duration : 59 min 5 s
Bit rate mode : Variable
Bit rate : 4 331 kb/s
Maximum bit rate : 8 400 kb/s
Width : 1 280 pixels
Height : 720 pixels
Display aspect ratio : 16:9
Frame rate mode : Variable
Maximum frame rate : 30.000 FPS
Color space : YUV
Chroma subsampling : 4:2:0
Bit depth : 8 bits
Scan type : Progressive
Bits/(Pixel*Frame) : 0.157
Stream size : 1.79 GiB (92%)
Color range : Limited
Color primaries : BT.709
Transfer characteristics : BT.709
Matrix coefficients : BT.709
Codec configuration box : avc

 NWA Shockwave

Audio
ID : 2
Format : AAC LC
Format/Info : Advanced Audio
Codec ID : mp4a-40-2
Duration : 59 min 5 s
Duration_LastFrame : -21 ms
Bit rate mode : Variable
Bit rate : 384 kb/s
Channel(s) : 2 channels
Channel layout : L R
Sampling rate : 48.0 kHz
Frame rate : 46.875 FPS (1024 SPF)
Compression mode : Lossy
Stream size : 161 MiB (8%)
Language : English
Default : Yes
Alternate group : 1

 

[/su_expand]

 

https://dx-tv.com/

Leave a Reply

Your email address will not be published. Required fields are marked *

This site uses Akismet to reduce spam. Learn how your comment data is processed.