Watch NWA ROH 2019 04 27 The Crockett Cup 1080p WEB HEEL full show free mp4

 

 

 

 


 

 

dx-tv.com

 

 

 

 

Complete name : NWA.ROH.2019.04.27.The.Crockett.Cup.1080p.WEB.h264-HEEL.mkv
Format : Matroska
Format version : Version 4
File size : 6.56 GiB
Duration : 3 h 34 min
Overall bit rate : 4 379 kb/s

Video
ID : 1
Format : AVC
Format/Info : Advanced Video Codec
Format settings, Reference : 4 frames
Format settings, GOP : M=4, N=48
Codec ID : V_MPEG4/ISO/AVC
Duration : 3 h 34 min
Bit rate : 4 245 kb/s
Width : 1 920 pixels
Height : 1 080 pixels
Display aspect ratio : 16:9
Frame rate mode : Variable
Frame rate : 30.000 FPS
Color space : YUV
Chroma subsampling : 4:2:0
Bit depth : 8 bits
Scan type : Progressive
Bits/(Pixel*Frame) : 0.068
Stream size : 6.36 GiB (97%)
Default : Yes
Forced : No

Audio
ID : 2
Format : AAC LC
Format/Info : Advanced Audio
Codec ID : A_AAC-2
Duration : 3 h 34 min
Bit rate : 132 kb/s
Channel(s) : 2 channels
Channel layout : L R
Sampling rate : 44.1 kHz
Frame rate : 43.066 FPS (1024 SPF)
Compression mode : Lossy
Delay relative to video : 22 ms
Stream size : 200 MiB (3%)
Default : Yes
Forced : No

 

 

 

 

 


 

 

Watch NWA ROH 2019 04 27 The Crockett Cup 1080p WEB HEEL full show free mp4

 

 

 

 

Watch online

 

 

Waiting finish converting video

 

 

Server 1

 

 

 

 

 

 

 

 

 

 


 


 

 

Uploaded By Site DX-TV.com

 

 

 

open rar file to see this password

 

 

 

 

The password : DX-TV.com

 

 

 

 

Uploaded.net + rapidgator.net + DDL.to + katfile.com

 

 

 

 


 

https://shrt10.com/6efVf9
 

 

https://shrt10.com/EUSnax2N
 

 
https://shrt10.com/P3gOXJAO
 

 
https://shrt10.com/SrhDSJ
 

 

Watch NWA ROH 2019 04 27 The Crockett Cup 1080p WEB HEEL full show free mp4