Watch NWA Powerrr Season 6 Episode 6 Replay

Watch NWA Powerrr Season 6 Episode 6 Replay DX-TV

Watch NWA Powerrr

 Watch NWA Powerrr

 

 

 

Download Links with premium High Speed
 

 


 

Dopapk

 

 

Show Links

 

 

http://shrt10.com/p0yF4d7g

 

[collapse]

 

 

 

 

Nitroflare

 

 

Show Links

 

 

http://shrt10.com/pNpbeQU

 

 

[collapse]

 

 

Rapidgator

 

 

Show Links

 

 

http://shrt10.com/lSg7hC

 

 

[collapse]

 

 

 

Uploaded
 

 

 

Show Links

 

 

 

 

http://shrt10.com/4Of7Nq8

 

 

[collapse]

 

 

 

 

 

Watch online

Server 1

 

 

 

 

Watch NWA Powerrr

 

 

 

 

Server-2

 

 

 

 

watch now

 

 

 

|Server-3

 

 

 

 

  now

 

 

Uploaded By Site DX-TV.com

 

 

Show Info This Show

 

 

Complete name : NWA Powerrr Season 6 Episode 6.mp4
Format : MPEG-4
Format profile : Base Media
Codec ID : isom41)
File size : 1.71 GiB
Duration : 53 min 14 s
Overall bit rate : 4 587 kb/s

Watch NWA Powerrr

Video
ID : 1
Format : AVC
Duration : 53 min 14 s
Source duration : 53 min 14 s
Bit rate : 4 301 kb/s
Nominal bit rate : 4 800 kb/s
Maximum bit rate : 4 482 kb/s
Width : 1 920 pixels
Height : 1 080 pixels
Display aspect ratio : 16:9
Frame rate mode : Constant
Frame rate : 29.970 (30000/1001) FPS
Color space : YUV
Chroma subsampling : 4:2:0
Bit depth : 8 bits
Scan type : Progressive
Bits/(Pixel*Frame) : 0.069
Stream size : 1.60 GiB (94%)
Source stream size : 1.67 GiB (98%)
Writing library : x264 core 152

Watch NWA Powerrr

Audio
ID : 2
Format : AAC LC
Format/Info : Advanced
Codec ID : mp4a-40-2
Duration : 53 min 14 s
Bit rate mode : Constant
Bit rate : 96.0 kb/s
Channel(s) : 2 channels
Channel layout : L R
Sampling rate : 48.0 kHz
Frame rate : 46.875 FPS (1024 SPF)
Compression mode : Lossy
Stream size : 36.6 MiB (2%)
Default : Yes
Alternate group : 1

 NWA Powerrr

 

 

Width : 1 920 pixels
Height : 1 080 pixels
Display aspect ratio : 16:9
Frame rate mode : Constant
Frame rate : 29.970 (30000/1001) FPS
Color space : YUV
Chroma subsampling : 4:2:0
Bit depth : 8 bits
Scan type : Progressive
Bits/(Pixel*Frame) : 0.069
Stream size : 1.60 GiB (94%)
Source stream size : 1.67 GiB (98%)
Writing library : x264 core 152

Watch NWA Powerrr

Audio
ID : 2
Format : AAC LC
Format/Info : Advanced
Codec ID : mp4a-40-2
Duration : 53 min 14 s
Bit rate mode : Constant
Bit rate : 96.0 kb/s
Channel(s) : 2 channels
Channel layout : L R
Sampling rate : 48.0 kHz
Frame rate : 46.875 FPS (1024 SPF)
Compression mode : Lossy
Stream size : 36.6 MiB (2%)
Default : Yes
Alternate group : 1

 

 

 

 

[collapse]

 

 

https://dx-tv.com/

You May Also Like

Leave a Reply

Your email address will not be published. Required fields are marked *

This site uses Akismet to reduce spam. Learn how your comment data is processed.