Watch NWA powerr EP 11 2020-01-04 1080p DX-TV

Watch NWA powerr EP 11 2020-01-04 1080p DX-TV

 

 

WWE RAW

 

 

 

 

dx-tv.com

 

 

 

 

Watch NWA powerr EP 11 2020-01-04 1080p DX-TV

 

 

 

 

 

Complete name : NWA powerr EP 11 2020-01-04 1080p WEB x264 DX-TV.mp4
Format : MPEG-4
Format profile : Base Media
File size : 1.84 GiB
Duration : 56 min 52 s
Overall bit rate mode : Variable
Overall bit rate : 4 638 kb/s
Writing application : Lavf58.23.101

Video
ID : 1
Format : AVC
Duration : 56 min 52 s
Bit rate : 4 536 kb/s
Nominal bit rate : 4 800 kb/s
Width : 1 920 pixels
Height : 1 080 pixels
Display aspect ratio : 16:9
Frame rate mode : Constant
Frame rate : 25.000 FPS
Color space : YUV
Chroma subsampling : 4:2:0
Bit depth : 8 bits
Scan type : Progressive
Bits/(Pixel*Frame) : 0.087
Stream size : 1.80 GiB (98%)
Writing library : x264 core 152

Audio
ID : 2
Format : AAC LC
Format/Info : Advanced Audio Codec Low Complexity
Codec ID : mp4a-40-2
Duration : 56 min 51 s
Bit rate mode : Variable
Bit rate : 96.0 kb/s
Maximum bit rate : 98.6 kb/s
Channel(s) : 2 channels
Channel layout : L R
Sampling rate : 48.0 kHz
Frame rate : 46.875 FPS (1024 SPF)
Compression mode : Lossy
Stream size : 39.2 MiB (2%)
Default : Yes
Alternate group : 1

 

 

 

 

 

 

Watch online

 

 

Waiting finish converting video

 

 

Server 1

 

 

 

 

 

 

 

 

 

 

 

 

 

Server 2

 

 

 

 

 

 

 

 

 

 

Server–3

 

 

 

 

 

 

 

 

 

Watch NWA powerr EP 11 2020-01-04 1080p DX-TV

 

 

 

Uploaded By Site DX-TV.com

 

 

 

 

 

Download VIP Members FTP server Download 1 Link and Free Links 

 

 

 

Limited Time will be removed after 60 days if you need available again pm email admin

 

This section is only available to registered users.

 

 

1fichier.com 

 

 

dailyuploads.net

 

 

dl.free.fr

 

 

katfile.com

 

 

rockfile.co

 

 

Ubloadbank.com

 

 

Download with premium account Links 

 

 

earn4files.com

 

 

nitroflare.com

 

 

rapidgator.net

 

 

uploaded.net

 

 

 

 

 

 

 

 

 

Categories

ADS



Archives