Watch NWA Hard Times PPV 2020 Online 720p DX-TV

Watch NWA Hard Times PPV 2020 Online 720p DX-TV

 

 

NWA

 

 

 

 

dx-tv.com

 

 

 

 

Watch NWA Hard Times PPV 2020 Online 720p DX-TV

 

 

 

 

 

Complete name : NWA Hard Times PPV 2020 PPV 720p WEB x264 DX-TV.mp4
Format : MPEG-4
Format profile : Base Media
Codec ID : isom (isom/iso2/avc1/mp41)
File size : 3.34 GiB
Duration : 2 h 31 min
Overall bit rate : 3 163 kb/s
Encoded date : UTC 2020-01-25 02:39:30
Tagged date : UTC 2020-01-25 02:39:30
Writing application : Lavf58.25.100

Video
ID : 1
Format : AVC
Format/Info : Advanced Video Codec
Codec ID/Info : Advanced Video Coding
Duration : 2 h 31 min
Bit rate : 3 000 kb/s
Width : 1 280 pixels
Height : 720 pixels
Display aspect ratio : 16:9
Frame rate mode : Variable
Frame rate : 29.970 (30000/1001) FPS
Minimum frame rate : 29.412 FPS
Maximum frame rate : 30.303 FPS
Color space : YUV
Chroma subsampling : 4:2:0
Bit depth : 8 bits
Scan type : Progressive
Bits/(Pixel*Frame) : 0.109
Stream size : 3.17 GiB (95%)
Encoded date : UTC 2020-01-25 02:39:30
Tagged date : UTC 2020-01-25 02:39:30
Codec configuration box : avcC

Audio
ID : 2
Format : AAC LC
Format/Info : Advanced Audio Codec Low Complexity
Codec ID : mp4a-40-2
Duration : 2 h 31 min
Bit rate mode : Constant
Bit rate : 155 kb/s
Channel(s) : 2 channels
Channel layout : L R
Sampling rate : 44.1 kHz
Frame rate : 43.066 FPS (1024 SPF)
Compression mode : Lossy
Stream size : 167 MiB (5%)
Title : Track1
Default : Yes
Alternate group : 1

 

Tournament Match: Dan Maff vs. Zicky Dice:

Maff takes him down right away, works him over in the corner and follows with chops. Dice fires back, and the bulldog gets 2.

He lays the boots to Maff and covers for 2. Maff fights back, but Dice follows with double axe handle and shoulder tackle for 2.

Maff kills him with a half and half, a a spear, cannonball and senton for the win. Dan Maff defeated Zicky Dice

 

 

 

Watch online

 

 

Server 1

 

 

 

watch now

 

 

Watch NWA Hard Times PPV 2020 Online 720p DX-TV

 

 

 

Uploaded By Site DX-TV.com

 

 

 

 

 

Download VIP Members FTP server Download 1 Link and Free Links 

 

 

 

Limited Time will be removed after 90 days if you need available again pm email admin

 

[member]

FTP Link Download high speed

[/member]

1fichier.com 

 

 

earn4files.com

 

 

filerio.in

 

 

Download with premium account Links 

 

 

nitroflare.com

 

 

rapidgator.net

 

 

uploaded.net

 

 

 

 

 

 

 

 

 

 216 total views,  2 views today

%d bloggers like this: