Watch NWA 70th Anniversary 2018 10 21 720p WEB H33B

Watch NWA 70th Anniversary 2018 10 21 720p WEB H33B

 

 

 

 


 

 

dx-tv.com

 

 

 

 

 

Complete name : NWA.70th.Anniversary.2018.10.21.720p.WEB.x264-H33B.mp4
Format : MPEG-4
Format profile : Base Media
File size : 2.57 GiB
Duration : 2 h 56 min
Overall bit rate : 2 077 kb/s
Writing application : Lavf57.56.100

Video
ID : 1
Format : AVC
Format/Info : Advanced Video Codec
Codec ID/Info : Advanced Video Coding
Duration : 2 h 56 min
Bit rate : 1 940 kb/s
Width : 1 280 pixels
Height : 720 pixels
Display aspect ratio : 16:9
Frame rate mode : Constant
Frame rate : 29.970
Color space : YUV
Chroma subsampling : 4:2:0
Bit depth : 8 bits
Scan type : Progressive
Bits/(Pixel*Frame) : 0.070
Stream size : 2.40 GiB (93%)
Writing library : x264 core 152

Audio
ID : 2
Format : AAC
Format/Info : Advanced Audio Codec
Format profile : LC
Codec ID : mp4a-40-2
Duration : 2 h 56 min
Bit rate mode : Constant
Bit rate : 128 kb/s
Channel(s) : 2 channels
Channel positions : Front: L R
Sampling rate : 48.0 kHz
Frame rate : 46.875 FPS (1024 SPF)
Compression mode : Lossy
Stream size : 163 MiB (6%)
Default : Yes
Alternate group : 1

 

 

Watch NWA 70th Anniversary 2018 10 21 720p WEB H33B

 

 

 

 

Watch online

 

 

Waiting finish converting video

 

 

Server 1

 

 

 

 

 

 

 

 

 

 

 

 

 

 

 

Server 2

 

 

 

 

 

 


 

 

 

 

 

Uploaded By Site DX-TV.com

 

open rar file to see this password

 

 

The password : DX-TV.com

 

 

Uploaded.net + rapidgator.net

 

 

 

 

http://shrt10.com/mNxOe

 

 

 
http://shrt10.com/vE39
 

 

 

 

Watch NWA 70th Anniversary 2018 10 21 720p WEB H33B