Watch NOAH Naomichi Marufuji Debut 2018 20th Anniversary Show Flight mp4

Watch NOAH Naomichi Marufuji Debut 2018 20th Anniversary Show Flight mp4

 

 

 

 


 

 

dx-tv.com

 

 

 

 

Complete name : NOAH.Naomichi.Marufuji.Debut.20th.Anniversary.Show.Flight.mp4
Format : MPEG-4
Codec ID : mp42 (mp42/isom)
File size : 2.18 GiB
Duration : 3 h 52 min
Overall bit rate mode : Variable
Overall bit rate : 1 342 kb/s
Encoded date : UTC 2018-09-02 15:39:10
Tagged date : UTC 2018-09-02 15:39:17

Video
ID : 1
Format : AVC
Format/Info : Advanced Video Codec
Codec ID/Info : Advanced Video Coding
Duration : 3 h 52 min
Bit rate : 1 257 kb/s
Width : 1 024 pixels
Height : 576 pixels
Display aspect ratio : 16:9
Frame rate mode : Variable
Frame rate : 30.000 FPS
Minimum frame rate : 29.412 FPS
Maximum frame rate : 30.303 FPS
Color space : YUV
Chroma subsampling : 4:2:0
Bit depth : 8 bits
Scan type : Progressive
Bits/(Pixel*Frame) : 0.071
Stream size : 2.04 GiB (94%)
Encoded date : UTC 2018-09-02 15:39:10
Tagged date : UTC 2018-09-02 15:39:17

Audio
ID : 2
Format : AAC
Format/Info : Advanced Audio Codec
Format profile : HE-AACv2 / HE-AAC / LC
Format settings : Implicit
Codec ID : mp4a-40-2
Duration : 3 h 52 min
Bit rate mode : Variable
Bit rate : 80.0 kb/s
Frame rate : 23.438 FPS (1024 SPF)
Compression mode : Lossy
Stream size : 133 MiB (6%)
Title : Stereo
Encoded date : UTC 2018-09-02 15:39:10
Tagged date : UTC 2018-09-02 15:39:17

 

 

Watch NOAH Naomichi Marufuji Debut 2018 20th Anniversary Show Flight mp4

 

 

 

 

Watch online

 

 

Waiting finish converting video

 

 

Server 1

 

 

 

 

 

 

 

 

 

 

 

 

 

 

 

 

 

 

 

Server 2

 

 

 

 

 

 

 

 

 

 

 

 

 

 

 

 

 

Uploaded By Site DX-TV.com

 

 

 

open rar file to see this password

 

 

 

 

The password : DX-TV.com

 

 

 

 

 

 

Uploaded.net + rapidgator.net

 

 

 

 

 

 

http://shrt10.com/ljFy

 

 

 

 

http://shrt10.com/xYCQq

 

 

 

 

 

 

 

 

 

 

Watch NOAH Naomichi Marufuji Debut 2018 20th Anniversary Show Flight mp4