Watch NOAH Global League 2018 11 08 Tokyo Korakuen Hall

Watch NOAH Global League 2018 11 08 Tokyo Korakuen Hall

 

 

 

 


 

 

dx-tv.com

 

 

 

 

Complete name : 2018.11.08.NOAH.Global.League.2018.Tokyo.Korakuen.Hall.(Samurai.TV).mp4
Format : MPEG-4
Format profile : Base Media
Codec ID : isom
File size : 2.68 GiB
Duration : 2h 34mn
Overall bit rate : 2 477 Kbps
Writing application : Lavf57.84.100

Video
ID : 1
Format : AVC
Format/Info : Advanced Video Codec
Codec ID/Info : Advanced Video Coding
Duration : 2h 34mn
Duration_LastFrame : -23ms
Bit rate mode : Variable
Bit rate : 2 336 Kbps
Width : 1 280 pixels
Height : 720 pixels
Display aspect ratio : 16:9
Frame rate mode : Constant
Frame rate : 60.000 fps
Color space : YUV
Chroma subsampling : 4:2:0
Bit depth : 8 bits
Scan type : Progressive
Bits/(Pixel*Frame) : 0.042
Stream size : 2.53 GiB (94%)

Audio
ID : 2
Format : AAC
Format/Info : Advanced Audio Codec
Format profile : LC
Codec ID : 40
Duration : 2h 34mn
Bit rate mode : Constant
Bit rate : 128 Kbps
Channel(s) : 2 channels
Channel positions : Front: L R
Sampling rate : 44.1 KHz
Compression mode : Lossy
Stream size : 142 MiB (5%)

 

 

 

 

 

 

 

Watch NOAH Global League 2018 11 08 Tokyo Korakuen Hall

 

 

 

 

Watch online

 

 

Waiting finish converting video

 

 

Server 1

 

 

 

 

 

 

 

Server 2

 

 

 

 

 

 

 


 

 

 

 

 

Uploaded By Site DX-TV.com

 

 

 

open rar file to see this password

 

 

 

 

The password : DX-TV.com

 

 

 

 

Uploaded.net + rapidgator.net

 

 

 

 

 

http://shrt10.com/5LFcAzbx

 

 

 
http://shrt10.com/oGRg1nh
 

 

 

 

 

 

Watch NOAH Global League 2018 11 08 Tokyo Korakuen Hall