Watch NOAH Global Jr League 2020 01 30 Final

Watch NOAH Global Jr League 2020 01 30 Final DX-TV

 

 

NOAH Global Final

 

 

 

 

dx-tv.com

 

 

 

 

Watch NOAH Global Jr League 2020 01 30 Final

 

 

 

 

 

Complete name : 2020.01.30.NOAH.Global.Jr.League.2020.Final.Tokyo.Korakuen.Hall.(DDT.Universe).mp4
Format : MPEG-4
Format profile : Base Media
Codec ID : isom
File size : 2.65 GiB
Duration : 3 h 5 min
Overall bit rate : 2 049 kb/s
Writing application : Lavf58.20.100

Video
ID : 1
Format : AVC
Duration : 3 h 5 min
Bit rate : 1 908 kb/s
Width : 1 280 pixels
Height : 720 pixels
Display aspect ratio : 16:9
Frame rate mode : Constant
Frame rate : 60.000 FPS
Color space : YUV
Chroma subsampling : 4:2:0
Bit depth : 8 bits
Scan type : Progressive
Bits/(Pixel*Frame) : 0.035
Stream size : 2.47 GiB (93%)
Audio
ID : 2
Format : AAC LC
Codec ID : mp4a-40-2
Duration : 3 h 5 min
Bit rate mode : Constant
Bit rate : 128 kb/s
Channel(s) : 2 channels
Channel layout : L R
Sampling rate : 44.1 kHz
Frame rate : 43.066 FPS (1024 SPF)
Compression mode : Lossy
Stream size : 170 MiB (6%)
Default : Yes
Alternate group : 1

 

Pro Wrestling NOAH, just before three rather big shows (Sugiura-gun produce at Shin-Kiba on the 27th, New Sunrise on 1/4 and Reboot on 1/5), has announced the four–yes,

FOUR–blocks of wrestlers for their upcoming Global Junior League tournament.

The Global Junior League has traditionally been a very sporadically-held tournament, in opposition to the yearly nature of the Global League (now known as the N-1 Victory).

In fact, last year was the first time the tournament had been held in consecutive years.

As is customary, the winner of the tournament gets a title shot. Three of the four Global Junior League winners have won the GHC Junior Heavyweight Championship:

Yoshinobu Kanemaru (2009), Kotaro Suzuki (2018) and HAYATA (2019).

 

Watch online

 

 

Server 1

 

 

 

 

 

 

 

 

 

 

 

Server 2

 

 

 

 

 

 

 

 

 

 

Server–3

 

 

 

 

 

 

 

 

 

Watch NOAH Global Jr League 2020 01 30 Final

 

 

 

Uploaded By Site DX-TV.com

 

 

 

 

 

1fichier.com 

 

 

dl.free.fr

 

 

earn4files.com

 

 

filerio.in

 

 

rockfile.co

 

 

 

Download with premium account Links 

 

 

nitroflare.com

 

 

rapidgator.net

 

 

uploaded.net