Watch NOAH 2021 01 10 Higher Ground 2021 DX-TV

Watch NOAH 2021 01 10 Higher Ground 2021 DX-TV

Watch NOAH 2021 01 10

 Watch NOAH 2021 01 10

 

Download Links with premium High Speed   

 

 

nitroflare.com

http://shrt10.com/ZySdVKQQh

 

 

rapidgator.net

http://shrt10.com/IVac2d

 

 

uploaded.net

http://shrt10.com/4cBQmOU

 

 

uploadgig.com

http://shrt10.com/1ElF5

 

Watch NOAH 2021 online

 

Server 1

 

 

 

 

Watch NOAH 2021

 

 

 

 

Server-2

 

 

 

 

watch now

 

 

Uploaded By Site DX-TV.com

 

Complete name : NOAH.2021.01.10.Higher.Ground.2021.JAPANESE.WEB.h264-LATE.mkv
Format : Matroska
Format version : Version 4
File size : 1.92 GiB
Duration : 2 h 26 min
Overall bit rate : 1 882 kb/s

Watch NOAH 2021

Video
ID : 1
Format : AVC
Duration : 2 h 26 min
Bit rate : 1 783 kb/s
Width : 960 pixels
Height : 540 pixels
Display aspect ratio : 16:9
Frame rate mode : Constant
Frame rate : 30.000 FPS
Color space : YUV
Chroma subsampling : 4:2:0
Bit depth : 8 bits
Scan type : Progressive
Bits/(Pixel*Frame) : 0.115
Stream size : 1.82 GiB (95%)
Default : Yes
Forced : No
Color range : Limited
Color primaries : BT.601 PAL
Transfer characteristics : BT.601
Matrix coefficients : BT.470

Watch NOAH 2021

Audio
ID : 2
Format : AAC LC
Format/Info : Advanced Audio
Codec ID : A_AAC-2
Duration : 2 h 26 min
Bit rate : 96.0 kb/s
Channel(s) : 2 channels
Channel layout : L R
Sampling rate : 44.1 kHz
Frame rate : 43.066 FPS (1024 SPF)
Compression mode : Lossy
Stream size : 100 MiB (5%)
Language : English
Default : Yes
Forced : No

Watch NOAH

Audio
ID : 2
Format : AAC LC
Format/Info : Advanced Audio
Codec ID : A_AAC-2
Duration : 2 h 26 min
Bit rate : 96.0 kb/s
Channel(s) : 2 channels
Channel layout : L R
Sampling rate : 44.1 kHz
Frame rate : 43.066 FPS (1024 SPF)
Compression mode : Lossy
Stream size : 100 MiB (5%)
Language : English
Default : Yes
Forced : No

Audio
ID : 2
Format : AAC LC
Format/Info : Advanced Audio
Codec ID : A_AAC-2
Duration : 2 h 26 min
Bit rate : 96.0 kb/s
Channel(s) : 2 channels
Channel layout : L R
Sampling rate : 44.1 kHz
Frame rate : 43.066 FPS (1024 SPF)
Compression mode : Lossy
Stream size : 100 MiB (5%)
Language : English
Default : Yes
Forced : No

 

 

https://dx-tv.com/

Leave a Reply

Your email address will not be published. Required fields are marked *

This site uses Akismet to reduce spam. Learn how your comment data is processed.