Watch NOAH 2020 07 30 Sanctuary Full Show

Watch NOAH 2020 07 30 Sanctuary Full Show DX-TV

 

NOAH Sanctuary
 

 NOAH Sanctuary

 

Watch NOAH 2020 07 30 Sanctuary Full Show

 

 

 

Complete name : NOAH.2020.07.30.Sanctuary.WEB.h264-LATE.mkv
Format : Matroska
Format version : Version 4
File size : 1.35 GiB
Duration : 1 h 45 min NOAH Sanctuary
Overall bit rate : 1 840 kb/s

 NOAH 2020 07 30 Sanctuary Full Show

Video
ID : 1
Format : AVC
Codec ID : V_MPEG4
Duration : 1 h 45 min
Bit rate : 1 741 kb/s
Width : 960 pixels
Height : 540 pixels
Display ratio : 16:9
 rate mode : Constant
Frame rate : 30.000 FPS
Color space : YUV
Chroma sub sampling : 4:2:0
Bit depth : 8 bits
Scan type : Progressive
Bits/(Pixel*Frame) : 0.112
Stream size : 1.28 GiB (95%)
Default : Yes
Forced : No NOAH Sanctuary
Color range : Limited
Color primaries : BT.601 PAL
Transfer : BT.601
Matrix : BT.470 System B/G

 NOAH 2020 07 30 Sanctuary Full Show

Audio
ID : 2
Format : AAC LC
Format/Info : Advanced
Codec ID : A_AAC-2
Duration : 1 h 45 min
Bit rate : 96.0 kb/s
Channel(s) : 2 channels
Channel layout : L R
Sampling rate : 44.1 kHz
Frame rate : 43.066 FPS
Compression mode : Lossy
Delay  to video : -166 ms NOAH Sanctuary
Stream size : 72.1 MiB (5%)
Language : English
Default : Yes
Forced : No

 

 

Watch NOAH 2020 07 30 Sanctuary Full Show

 

 

 

Watch online

 

 

Server 1

 

 

 

 

watch now

 

 

 

 

Server 2

 

 

 

watch now

 

 

 

Server-3

 

 

 

watch now

 

 NOAH 2020 07 30 Sanctuary Full Show

 

Uploaded By Site DX-TV.com

 

 

 

Download with premium account Links 

 

 

Keep2Share

 

 

nitroflare.com

 

 

rapidgator.net

 

 

uploadgig.com

 

 

 

dx-tv.com

 

urlfree.net

 69 total views,  6 views today

Leave a Reply

Your email address will not be published. Required fields are marked *

This site uses Akismet to reduce spam. Learn how your comment data is processed.

%d bloggers like this: