Watch NOAH 2018 03 11 he Great Voyage 2018 In Yokohama

Watch NOAH 2018 03 11 he Great Voyage 2018 In Yokohama

 

 

s

 

 

 

wwe

 

 

 

 

 

Complete name : NOAH – 2018.03.11 – The Great Voyage 2018 In Yokohama.mp4
Format : MPEG-4
Format profile : Base Media
Codec ID : isom
File size : 2.17 GiB
Duration : 3h 53mn
Overall bit rate : 1 333 Kbps
Writing application : Lavf57.83.100

Video
ID : 1
Format : AVC
Format/Info : Advanced Video Codec
Format profile : High@L4.1
Codec ID : avc1
Codec ID/Info : Advanced Video Coding
Duration : 3h 53mn
Bit rate mode : Variable
Bit rate : 1 244 Kbps
Width : 1 024 pixels
Height : 576 pixels
Display aspect ratio : 16:9
Frame rate mode : Variable
Frame rate : 30.000 fps
Minimum frame rate : 3.759 fps
Maximum frame rate : 30.303 fps
Color space : YUV
Chroma subsampling : 4:2:0
Bit depth : 8 bits
Scan type : Progressive
Bits/(Pixel*Frame) : 0.070
Stream size : 2.03 GiB (93%)

Audio
ID : 2
Format : AAC
Format/Info : Advanced Audio Codec
Format profile : LC
Codec ID : 40
Duration : 3h 53mn
Bit rate mode : Constant
Bit rate : 78.9 Kbps
Channel(s) : 2 channels
Channel positions : Front: L R
Sampling rate : 48.0 KHz
Compression mode : Lossy
Stream size : 132 MiB (6%)

 

 

Watch NOAH 2018 03 11 he Great Voyage 2018 In Yokohama

 

 

 

 

Watch online

 

 

Waiting finish converting video

 

 

Server 1

 

 

 

 

 

 

 

 

 

 

 

 

 

 

 

 

 

 

Server 2

 

 

 

 

 

 

 


 

 

 

 

 

 

Uploaded By Site DX-TV.com

 

 

 

open rar file to see this password

 

 

 

 

The password is : DX-TV.com

 

 

 

 

 

 

Uploaded.net + rapidgator.net

 

 

 

 

 

 

http://shrt10.com/6ECqw5E

 

 

 

 

 

http://shrt10.com/r367eDs

 

 

 

 

 

 

 

 

 

Watch NOAH 2018 03 11 he Great Voyage 2018 In Yokohama