Watch NJPW Wrestling Hi no Kuni 2019 04 29 WEB DL DX-TV Lang Japanese full show free mp4

 

 

 

 


 

 

dx-tv.com

 

 

 

 

 
[EVENT]………..: NNJPW.Wrestling.Hi.no.Kuni.2019.04.29.WEB DL x264.DX-TV Lang Japanese mp4
[RELEASED]……..: 2019.04.29
[SOURCE]……….: WEB DL
[CONTAINER]…….: mp4
[SIZE]…………: 3.21 GB
[Capper Group]….: DX-TV
[Duration]……..: 3 h 48 m
[RESOLUTION]……: 960 x 540 {16:9}@ 29.970 FPS
[VIDEO]………..: x264 @ 1900 kbps
[AUDIO]………..: AAC @ 129 kbps
[language]……..: Japanese
 

 

 

 

 

Complete name : NJPW.Wrestling.Hi.no.Kuni.2019.04.29.WEB DL x264.DX-TV Lang Japanese.mp4
Format : MPEG-4
Format profile : Base Media
Codec ID : isom (isom/iso2/avc1/mp41)
File size : 3.21 GiB
Duration : 3 h 48 min
Overall bit rate mode : Variable
Overall bit rate : 2 012 kb/s
Writing application : Lavf56.30.100

Video
ID : 1
Format : AVC
Format/Info : Advanced Video Codec
Format settings, Reference : 3 frames
Format settings, GOP : M=1, N=59
Codec ID : avc1
Codec ID/Info : Advanced Video Coding
Duration : 3 h 48 min
Bit rate mode : Constant
Bit rate : 1 904 kb/s
Width : 960 pixels
Height : 540 pixels
Display aspect ratio : 16:9
Frame rate mode : Variable
Frame rate : 29.970 (29970/1000) FPS
Minimum frame rate : 0.612 FPS
Maximum frame rate : 30.303 FPS
Original frame rate : 29.970 (30000/1001) FPS
Standard : NTSC
Color space : YUV
Chroma subsampling : 4:2:0
Bit depth : 8 bits
Scan type : Progressive
Bits/(Pixel*Frame) : 0.123
Stream size : 3.04 GiB (95%)
Color range : Limited
Codec configuration box : avcC

Audio
ID : 2
Format : AAC LC
Format/Info : Advanced Audio 
Codec ID : mp4a-40-2
Duration : 3 h 48 min
Bit rate mode : Variable
Bit rate : 96.0 kb/s
Maximum bit rate : 102 kb/s
Channel(s) : 2 channels
Channel layout : L R
Sampling rate : 44.1 kHz
Frame rate : 43.066 FPS (1024 SPF)
Compression mode : Lossy
Stream size : 157 MiB (5%)
Default : Yes
Alternate group : 1

 

 

 

 

 

Watch NJPW Wrestling Hi no Kuni 2019 04 29 WEB DL DX-TV Lang Japanese full show free mp4

 

 

 

 

Watch online

 

 

Waiting finish converting video

 

 

Server 1

 

 

 

 

 



Uploaded By Site DX-TV.com

 

 

 

open rar file to see this password

 

 

 

 

The password : DX-TV.com

 

 

 

 

Uploaded.net + rapidgator.net + DDL.to + katfile.com

 

 

 

 

https://shrt10.com/OIDz

 

 

 

https://shrt10.com/Wm9KL

 

 

 

Watch NJPW Wrestling Hi no Kuni 2019 04 29 WEB DL DX-TV Lang Japanese full show free mp4