Watch NJPW Wrestle Kingdom [WK 14] English 1080p 04/01/2020

Watch NJPW Wrestle Kingdom WK 14 English 1080p 04/01/2020 DX-TV

 

 

NJPW Wrestle Kingdom 14

 

 

 

 

dx-tv.com

 

Download VIP Members FTP server Download 1 Link and Free Links 

 

 

Watch NJPW Wrestle Kingdom WK 14 English 1080p 04/01/2020

 

 

 

 

Complete name : JPW Wrestle Kingdom 14 04-01-2020 ENG 1080p WEB Live Stream x264 DX-TV.mp4
Format : MPEG-4
Format profile : Base Media
File size : 5.98 GiB
Duration : 4 h 29 min
Overall bit rate : 3 172 kb/s
Writing application : Lavf58.20.100

Video
ID : 1
Format : AVC
Duration : 4 h 29 min
Bit rate : 3 000 kb/s
Width : 1 920 pixels
Height : 1 080 pixels
Display aspect ratio : 16:9
Frame rate mode : Constant
Frame rate : 30.000 FPS
Color space : YUV
Chroma subsampling : 4:2:0
Bit depth : 8 bits
Scan type : Progressive
Bits/(Pixel*Frame) : 0.048
Stream size : 5.66 GiB (95%)

Audio
ID : 2
Format : AAC LC
Codec ID : mp4a-40-2
Duration : 4 h 29 min
Bit rate mode : Constant
Bit rate : 161 kb/s
Channel(s) : 2 channels
Channel layout : L R
Sampling rate : 44.1 kHz
Frame rate : 43.066 FPS (1024 SPF)
Compression mode : Lossy
Stream size : 311 MiB (5%)
Title : simple_aac
Default : Yes
Alternate group : 1

 

 

Watch online

 

 

Server 1

 

 

Coming very soon after end live immediately waiting

 

 

watch now

 

 

 

 

 

 

 

Watch NJPW Wrestle Kingdom WK 14 English 1080p 04/01/2020

 

 

 

Uploaded By Site DX-TV.com

 

 

 

 

 

Download VIP Members FTP server Download 1 Link and Free Links 

 

 

 

Limited Time will be removed after 90 days if you need available again pm email admin

 

[member]

 

 

FTP Link Download high speed

 

 

 

1fichier.com 

 

 

dl.free.fr

 

 

earn4files.com

 

 

[/member]

 

 

Download with premium account Links 

 

 

 

nitroflare.com

 

 

rapidgator.net

 

 

 

 

 

 

 

 

 

You May Also Like