Watch Njpw Wrestle Kingdom 15 04 Jan 2021 English

Watch Njpw Wrestle Kingdom 15 04 Jan 2021 English in Tokyo Dome DX-TV

Watch Njpw Wrestle Kingdom 15

 Watch Njpw Wrestle Kingdom 15

Njpw Wrestle Kingdom 15

Download Links with premium High Speed   

 

 

nitroflare.com

http://shrt10.com/pKWAj

 

 

rapidgator.net

http://shrt10.com/3B7o65

 

 

uploaded.net

http://shrt10.com/mdqyxWH

 

 

uploadgig.com

http://shrt10.com/CoOxlRy

 

Watch Njpw Wrestle Kingdom 15

 

Server 1

 

 

 

 

Watch Njpw Wrestle Kingdom 15

 

 

 

 

Server-2

 

 

 

watch now

 

 

Uploaded By Site DX-TV.com

 

Complete name : By DX-TV,com- Njpw Wrestle Kingdom 15 04 Jan 2021 in Tokyo Dome – English.mp4
Format : MPEG-4
Format profile : Base Media
Codec ID : isom (isom/iso2/avc1/mp41)
File size : 4.19 GiB
Duration : 5 h 10 min
Overall bit rate : 1 929 kb/s
Writing application : Lavf58.25.100

Watch Njpw Wrestle Kingdom  

Video
ID : 1
Format : AVC
Codec ID : avc1
Codec ID/Info : Advanced 
Duration : 5 h 10 min
Bit rate : 1 818 kb/s
Width : 960 pixels
Height : 540 pixels
Display aspect ratio : 16:9
Frame rate mode : Variable
Frame rate : 30.000 FPS
Minimum frame rate : 14.925 FPS
Maximum frame rate : 90 000.000 FPS
Color space : YUV
Chroma subsampling : 4:2:0
Bit depth : 8 bits
Scan type : Progressive
Bits/(Pixel*Frame) : 0.117
Stream size : 3.95 GiB (94%)
Color range : Limited
Color primaries : BT.601 PAL
Transfer characteristics : BT.601
Matrix coefficients : BT.470 System B/G
Codec configuration box : avcC

 Njpw Wrestle Kingdom 15

Audio
ID : 2
Format : AAC LC
Format/Info : Advanced Audio Codec
Codec ID : mp4a-40-2
Duration : 5 h 10 min
Bit rate mode : Constant
Bit rate : 100 kb/s
Channel(s) : 2 channels
Channel layout : L R
Sampling rate : 44.1 kHz
Frame rate : 43.066 FPS (1024 SPF)
Compression mode : Lossy
Stream size : 222 MiB (5%)
Default : Yes
Alternate group : 1

 Njpw Wrestle Kingdom 15

Audio
ID : 2
Format : AAC LC
Format/Info : Advanced Audio Codec
Codec ID : mp4a-40-2
Duration : 5 h 10 min
Bit rate mode : Constant
Bit rate : 100 kb/s
Channel(s) : 2 channels
Channel layout : L R
Sampling rate : 44.1 kHz
Frame rate : 43.066 FPS (1024 SPF)
Compression mode : Lossy
Stream size : 222 MiB (5%)
Default : Yes
Alternate group : 1

 

 

https://dx-tv.com/

Leave a Reply

Your email address will not be published. Required fields are marked *

This site uses Akismet to reduce spam. Learn how your comment data is processed.