Watch NJPW Wrestle Kingdom 14 2020/01/05 English

Watch NJPW Wrestle Kingdom 14 2020/01/05 English DX-TV

 

 

NJPW Wrestle Kingdom 14

 

 

 

 

dx-tv.com

 

 

 

 

Watch NJPW Wrestle Kingdom 14 2020/01/05 English

 

 

 

 

 

Complete name : NJPW.2020.01.05.Wrestle.Kingdom.14.in.Tokyo.Dome.Day.2.READNFO.INTERNAL.ENGLISH.WEB.h264-LATE.mkv
Format : Matroska
Format version : Version 4
File size : 4.29 GiB
Duration : 5 h 40 min
Overall bit rate : 1 806 kb/s

Video
ID : 1
Format : AVC
Codec ID : V_MPEG4/ISO/AVC
Duration : 5 h 40 min
Bit rate : 1 703 kb/s
Width : 960 pixels
Height : 540 pixels
Display aspect ratio : 16:9
Frame rate mode : Constant
Frame rate : 30.000 FPS
Color space : YUV
Chroma subsampling : 4:2:0
Bit depth : 8 bits
Scan type : Progressive
Bits/(Pixel*Frame) : 0.110
Stream size : 4.05 GiB (94%)
Default : Yes
Forced : No
Color range : Limited
Color primaries : BT.601 PAL
Transfer characteristics : BT.601
Matrix coefficients : BT.470 System B/G

Audio
ID : 2
Format : AAC LC
Format/Info : Advanced Audio Codec Low Complexity
Codec ID : A_AAC-2
Duration : 5 h 40 min
Bit rate : 99.8 kb/s
Channel(s) : 2 channels
Channel layout : L R
Sampling rate : 44.1 kHz
Frame rate : 43.066 FPS (1024 SPF)
Compression mode : Lossy
Delay relative to video : -166 ms
Stream size : 243 MiB (6%)
Language : English
Default : Yes
Forced : No

 

 

 

 

 

 

Watch online

 

 

Server 1

 

 

 

 

 

watch now

 

 

 

 

 

 

Server 2

 

 

 

 

 

Watch NJPW Wrestle Kingdom 14 2020/01/05 English

 

 

 

Uploaded By Site DX-TV.com

 

 

 

 

Download VIP Members FTP Link and Free Links 

 

 

Limited Time will be removed after 30 days if you need available again pm email admin

 

[member]

FTP Link Download high speed

 

 

 

1fichier.com 

 

dl.free.fr

 

 

[/member]

 

 

Download with premium account Links 

 

 

earn4files.com

 

 

nitroflare.com

 

 

rapidgator.net

 

 

uploaded.net

 

 

 

 

 

 

 

 

 

 192 total views,  4 views today

%d bloggers like this: