Watch NJPW World Tag League 2020 12 04 Free DX-TV

NJPW World Tag League 2020 12 04 Free DX-TV DX-TV

Watch NJPW World Tag League 2020

 Watch NJPW World Tag League 2020

 

[su_expand more_text=”Show More Info” less_text=”Close all Info” height=”30″ text_color=”#000000″ link_color=”#e25f8b” link_style=”button” more_icon=”icon: arrow-down” less_icon=”icon: arrow-up”]

Complete name : C:\DX\WWE\Downloading\NJPW.2020.12.04.World.Tag.League.2020.Day.8.JAPANESE.WEB.h264-LATE.mkv
Format : Matroska
Format version : Version 4
File size : 1.98 GiB
Duration : 2 h 25 min
Overall bit rate : 1 957 kb/s

Watch NJPW World Tag League 2020

Video
ID : 1
Format : AVC
Duration : 2 h 25 min
Bit rate : 1 855 kb/s
Width : 960 pixels
Height : 540 pixels
Display aspect ratio : 16:9
Frame rate mode : Constant
Frame rate : 30.000 FPS
Color space : YUV
Chroma subsampling : 4:2:0
Bit depth : 8 bits
Scan type : Progressive
Bits/(Pixel*Frame) : 0.119
Stream size : 1.88 GiB
Default : Yes
Forced : No
Color range : Limited
Color primaries : BT.601 PAL
Transfer characteristics : BT.601
Matrix coefficients : BT.470

NJPW World Tag League 2020

Audio
ID : 2
Format : AAC LC
Format/Info : Advanced Audio
Codec ID : A_AAC-2
Duration : 2 h 25 min
Bit rate : 100 kb/s
Channel(s) : 2 channels
Channel layout : L R
Sampling rate : 44.1 kHz
Frame rate : 43.066 FPS
Compression mode : Lossy
Stream size : 104 MiB (5%)
Language : English
Default : Yes
Forced : No

NJPW World Tag League 

3rd Match: Robbie Eagles (3-4) vs El Desperado (5-2)

A first time singles meeting, Robbie Eagles meets El Desperado one on one in the third match of the evening.

Already out of the running mathematically, Eagles is in it for the thrill of the fight, and in his own pre-tournament words, to ‘test his jaw.

against the hard hitting Desperado, who will gladly oblige the Australian Sniper. 

In contrast to his opponent, Desperado is very much alive when it comes to Budokan hopes, having beaten IWGP Jr.

Heavyweight Champion Taiji Ishimori in Osaka. Desperado is confident indeed, but that’s a confidence Eagles could well exploit.

With both men well versed in leg based submissions and offense, will that be the key tonight? Or will versatility be the name of the game?

[/su_expand]

 

 

Watch online

 

Server 1

 

 

 

 

Watch NJPW World Tag League 2020

 

 

 

 

Server-2

 

 

 

 

watch now

 

 

 

 

Uploaded By Site DX-TV.com

https://dx-tv.com/watch-njpw-new-year-dash-2018-01-05-web-dl-x264-dx-tv-japanes/

 

Download Links with premium High Speed   

 

 

 

 

dropapk.to

 

 

 

nitroflare.com

 

 

 

rapidgator.net

 

 

 

uploaded.net

 

 

 

uploadgig.com

 

 

NJPW World Tag League 2020

Leave a Reply

Your email address will not be published. Required fields are marked *

This site uses Akismet to reduce spam. Learn how your comment data is processed.