Watch NJPW World Tag League 11 29 2019 Japan DX-TV

Watch NJPW World Tag League 11 29 2019 Japan DX-TV

 

 

NJPW World

 

 

 

 

dx-tv.com

 

 

 

 

Watch NJPW World Tag League 11 29 2019 Japan DX-TV

 

 

 

 

 

Complete name : NJPW World Tag League 11-29-2019 WEB x264 DX-TV.mp4
Format : MPEG-4
Format profile : Base Media
Codec ID : mp42 (mp42)
File size : 2.45 GiB
Duration : 2 h 45 min
Overall bit rate : 2 122 kb/s

Video
ID : 1
Format : AVC
Duration : 2 h 45 min
Bit rate : 1 998 kb/s
Width : 960 pixels
Height : 540 pixels
Display aspect ratio : 16:9
Frame rate mode : Constant
Frame rate : 30.000 FPS
Color space : YUV
Chroma subsampling : 4:2:0
Bit depth : 8 bits
Scan type : Progressive
Bits/(Pixel*Frame) : 0.129
Stream size : 2.31 GiB (94%)
Language : English
Codec configuration box : avcC

Audio
ID : 2
Format : AAC LC
Format/Info : Advanced Audio Codec Low Complexity
Codec ID : mp4a-40-2
Duration : 2 h 45 min
Source duration : 2 h 45 min
Bit rate mode : Constant
Bit rate : 116 kb/s
Channel(s) : 2 channels
Channel layout : L R
Sampling rate : 44.1 kHz
Frame rate : 43.066 FPS (1024 SPF)
Compression mode : Lossy
Stream size : 137 MiB (5%)
Source stream size : 137 MiB (5%)
Title : Stereo
Language : English
Default : Yes
Alternate group : 1

 

 

 

 

 

 

Watch online

 

 

Waiting finish converting video

 

 

Server 1

 

 

 

 

watch now

 

 

 

 

 

 

Server 2

 

 

 

 

 

 

 

 

 

 

 

 

 

 

 

Uploaded By Site DX-TV.com

 

 

 

 

 

Watch NJPW World Tag League 11 29 2019 Japan DX-TV

 

 

 

 

 

 

Recommended For Free

 

 

 

 

earn4files.com

 

 

 

 

Download with high speed Premium account

 

 

 

 

nitroflare.com

 

 

 

rapidgator.net

 

 

 

 

uploaded.net

 

 

 

 

 

 

 

 

 

 

Categories

Earn money $25 as per 1000

103