Watch NJPW Strong 2021 Jan 08 Episode 21 720p DX-TV

Watch NJPW Strong 2021 Jan 08 Episode 21 720p DX-TV

Watch NJPW Strong 2021

 Watch NJPW Strong 2021

 

Download Links with premium High Speed   

 

 

nitroflare.com

http://shrt10.com/xlfGP7W
http://shrt10.com/TnFm7KWx2

 

 

rapidgator.net

http://shrt10.com/jSAa0xrV
http://shrt10.com/lTDCeV

 

 

uploaded.net

http://shrt10.com/XscKiiA0j
http://shrt10.com/JoT1z4hkv

 

 

uploadgig.com

http://shrt10.com/EeP27
http://shrt10.com/wwAZysq

 

Watch NJPW Strong online

 

Server 1

 

 

 

 

Watch NJPW Strong

 

watch now

 

 

 

 

Server-2

 

 

 

 

Watch NJPW Strong

watch now

 

 

Uploaded By Site DX-TV.com

 

 
Complete name : NJPW.2021.01.08.Strong.Episode.21.ENGLISH.720p.WEB.h264-LATE.mkv
Format : Matroska
Format version : Version 4
File size : 721 MiB
Duration : 50 min 31 s
Overall bit rate : 1 996 kb/s

Video
ID : 1
Format : AVC
Codec ID : V_MPEG4/ISO/AVC
Duration : 50 min 31 s
Bit rate : 1 904 kb/s
Width : 1 280 pixels
Height : 720 pixels
Display aspect ratio : 16:9
Frame rate mode : Constant
Frame rate : 30.000 FPS
Color space : YUV
Chroma subsampling : 4:2:0
Bit depth : 8 bits
Scan type : Progressive
Bits/(Pixel*Frame) : 0.069
Stream size : 686 MiB (95%)
Forced : No

Watch NJPW Strong

Audio
ID : 2
Format : AAC LC
Format/Info : Advanced Audio
Codec ID : A_AAC-2
Duration : 50 min 31 s
Bit rate : 93.6 kb/s
Channel(s) : 2 channels
Channel layout : L R
Sampling rate : 44.1 kHz
Frame rate : 43.066 FPS (1024 SPF)
Compression mode : Lossy
Delay relative to video : -23 ms
Stream size : 33.8 MiB (5%)
Default : Yes
Forced : No

Watch NJPW Strong

Complete name : NJPW.2021.01.08.Strong.Episode.21.JAPANESE.720p.WEB.h264-LATE.mkv
Format : Matroska
Format version : Version 4
File size : 721 MiB
Duration : 50 min 31 s
Overall bit rate : 1 996 kb/s

Video
ID : 1
Format : AVC
Duration : 50 min 31 s
Bit rate : 1 904 kb/s
Width : 1 280 pixels
Height : 720 pixels
Display aspect ratio : 16:9
Frame rate mode : Constant
Frame rate : 30.000 FPS
Color space : YUV
Chroma subsampling : 4:2:0
Bit depth : 8 bits
Scan type : Progressive
Bits/(Pixel*Frame) : 0.069
Stream size : 687 MiB (95%)
Forced : No

Watch NJPW Strong

Audio
ID : 2
Format : AAC LC
Format/Info : Advanced Audio
Codec ID : A_AAC-2
Duration : 50 min 31 s
Bit rate : 93.6 kb/s
Channel(s) : 2 channels
Channel layout : L R
Sampling rate : 44.1 kHz
Frame rate : 43.066 FPS (1024 SPF)
Compression mode : Lossy
Delay relative to video : -23 ms
Stream size : 33.8 MiB (5%)
Default : Yes
Forced : No

 

 

https://dx-tv.com/

Leave a Reply

Your email address will not be published. Required fields are marked *

This site uses Akismet to reduce spam. Learn how your comment data is processed.