Watch NJPW Strong 2020 10 09 Ep10 English -Japanese

NJPW Strong 2020 10 09 Ep10 English -Japanese DX-TV

 

Watch NJPW Strong 2020

 

 Watch NJPW Strong 2020

 

Watch Online NJPW Strong 2020 10 09 Ep10 English -Japanese

 

 

 

Complete name : NJPW.2020.10.09.Strong.Episode.10.ENGLISH.720p.WEB.h264-LATE.mkv
Format : Matroska
Format version : Version 4
File size : 901 MiB
Duration : 1 h 2 min
Overall bit rate : 2 031 kb/s

Watch NJPW Strong 2020

Video
ID : 1
Format : AVC
Duration : 1 h 2 min
Bit rate : 1 904 kb/s
Width : 1 280 pixels
Height : 720 pixels
Display aspect ratio : 16:9
Frame rate mode : Constant
Frame rate : 30.000 FPS
Color space : YUV
Chroma subsampling : 4:2:0
Bit depth : 8 bits
Scan type : Progressive
Bits/(Pixel*Frame) : 0.069
Stream size : 844 MiB (94%)
Forced : No

Watch NJPW Strong 2020

Audio
ID : 2
Format : AAC LC
Format/Info : Advanced Audio
Codec ID : A_AAC-2
Duration : 1 h 2 min
Bit rate : 125 kb/s
Channel(s) : 2 channels
Channel layout : L R
Sampling rate : 44.1 kHz
Frame rate : 43.066 FPS
Compression mode : Lossy
Delay relative to video : -23 ms
Stream size : 55.5 MiB
Language : English
Default : Yes
Forced : No

Watch NJPW Strong 2020

Main Event, Elimination Match: David Finlay, Jeff Cobb, Rocky Romero, TJP, ACH & Karl Fredericks

vs BULLET CLUB (Jay White, KENTA, Tama Tonga, Tanga Loa, Hikuleo & Chase Owens

 

A mammoth 12 man elimination match headlines the action this week on NJPW STRONG.

A consistent factor since the start of NJPW STRONG in August has been the sheer dominance of BULLET CLUB.

In singles action with KENTA, Jay White and the impressive young gun Hikuleo, or in tag team warfare with Guerrillas of Destiny,

their record may at times have been controversial the last several Friday nights,

but it has been undisputedly successful.

Watch NJPW Strong 2020

Tonight they face off against ateam of NJPW hontai, CHAOS and freelance members who each have strong resumes in their own right, but are they able to be a cohesive six man unit? Either way, the rules of the elimination tag match, which incorporates over the top rope eliminations as well as pinfalls and submissions, makes for unpredictable action, and a match where all 12 competitors need eyes in the backs of their heads

 

 

 

Watch Online NJPW Strong 2020 10 09 Ep10 English -Japanese

 

 

 

 

Watch online

 

 

 

 

 

Server 1

 

English

watch now

Watch NJPW Strong 2020

Japanese

 

Watch NJPW Strong 2020

 

 

 

 

Server-2

 

English

Watch NJPW Strong 2020

 

Japanese

 

Watch NJPW Strong 2020

 

 

 

 

Server-3

 

English

watch now

 

Japanese

 

watch now

 

 

 

 

Uploaded By Site DX-TV.com

 

 

 

 

Download Free Links with normal and high Speed [ more 14 hosts ]  

 

 

English

 

http://shrt10.com/jK6kq
http://shrt10.com/y2ASv
http://shrt10.com/UuuJcf55
http://shrt10.com/BXkwAJKQb
http://shrt10.com/7BPzKDq
http://shrt10.com/HTKQpWf
http://shrt10.com/9Xy4HOEhq
http://shrt10.com/BU66L99uC
http://shrt10.com/Nc6AI
http://shrt10.com/aApug
http://shrt10.com/gZH6Gi

 

Japanese

 

http://shrt10.com/0myg86A
http://shrt10.com/vupdk
http://shrt10.com/uaRv62
http://shrt10.com/VuIJR
http://shrt10.com/tJ9uxd
http://shrt10.com/tNg0MID9
http://shrt10.com/hV7sW
http://shrt10.com/BP8dUwQM
http://shrt10.com/T2dBh
http://shrt10.com/q5Xn1
http://shrt10.com/M0q4HH3Q

 

Watch NJPW Strong 2020

 

Download Links with premium High Speed   

 

 

 

dropapk.to

 

http://shrt10.com/QrJ0Ta
http://shrt10.com/2sQobHdtt

 

 

nitroflare.com

 

http://shrt10.com/Uqkk9
http://shrt10.com/EVo7wlTSs

 

rapidgator.net

 

http://shrt10.com/UEWBf
http://shrt10.com/HSTGflaqi

 

 

uploaded.net

 

http://shrt10.com/A5JKSu2
http://shrt10.com/nH7Wv

 

uploadgig.com

 

http://shrt10.com/OYkyqvyJB
http://shrt10.com/VGdFQGF

 NJPW Strong 2020

 

 

 

dx-tv.com

 

urlfree.net

Leave a Reply

Your email address will not be published. Required fields are marked *

This site uses Akismet to reduce spam. Learn how your comment data is processed.