Watch NJPW Road To Wrestling Dontaku 2019 04 13 Day 1 WEB H33B

 

 

 

 


 

 

 

dx-tv.com

 

 

 

Complete name : NJPW.2019.04.13.Road.To.Wrestling.Dontaku.2019.Day.1.JAPANESE.540p.WEB.h264-H33B.mp4
Format : MPEG-4
Format profile : Base Media
Codec ID : isom
File size : 1.91 GiB
Duration : 2h 16mn
Overall bit rate : 2 011 Kbps
Writing application : Lavf55.33.100

Video
ID : 2
Format : AVC
Format/Info : Advanced Video Codec
Format settings, ReFrames : 3 frames
Codec ID : avc1
Codec ID/Info : Advanced Video Coding
Duration : 2h 16mn
Bit rate mode : Constant
Bit rate : 1 904 Kbps
Width : 960 pixels
Height : 540 pixels
Display aspect ratio : 16:9
Frame rate mode : Variable
Frame rate : 29.970 fps
Minimum frame rate : 29.412 fps
Maximum frame rate : 30.303 fps
Standard : NTSC
Color space : YUV
Chroma subsampling : 4:2:0
Bit depth : 8 bits
Scan type : Progressive
Bits/(Pixel*Frame) : 0.123
Stream size : 1.81 GiB (95%)

Audio
ID : 1
Format : AAC
Format/Info : Advanced Audio Codec
Format profile : LC
Codec ID : 40
Duration : 2h 16mn
Bit rate mode : Constant
Bit rate : 96.0 Kbps
Channel(s) : 2 channels
Channel positions : Front: L R
Sampling rate : 44.1 KHz
Compression mode : Lossy
Stream size : 93.4 MiB (5%)

 

 

 


 

 

 

Watch NJPW Road To Wrestling Dontaku 2019 04 13 Day 1 WEB H33B

 

 

 

 

Watch online

 

 

Waiting finish converting video

 

 

Server 1

 

 

 

 

 

 

 

 

 


 

 

 

 

Server 2

 

 

 

 

 


 

 

 

Uploaded By Site DX-TV.com

 

 

 

open rar file to see this password

 

 

 

 

The password : DX-TV.com

 

 

 

 

Uploaded.net + rapidgator.net

 

 

 

 


 

 

 
https://shrt10.com/djhjznqG

 

 

 

 
https://shrt10.com/WCF21
 

 

Watch NJPW Road To Wrestling Dontaku 2019 04 13 Day 1 WEB H33B