Watch NJPW Road to the New Beginning Day 11 2021 02 03

Watch NJPW Road to the New Beginning Day 11 2021 02 03 DX-TV

Watch NJPW Road to the New

 Watch NJPW Road to the New

 

Download Links with premium High Speed   

 

 

dropapk.to

http://shrt10.com/VSdF9
http://shrt10.com/AFrkf

 

 

nitroflare.com

http://shrt10.com/bDbEDi
http://shrt10.com/aGyWwSv

 

 

rapidgator.net

http://shrt10.com/8s6Bwef
http://shrt10.com/sKVI5g

 

 

uploaded.net

http://shrt10.com/L4zIE8pD
http://shrt10.com/n8C5mO

 

 

 

Watch online

 

Server 1

 

 

 

 

Watch NJPW Road to

watch now

 

 

 

 

Server-2

 

 

 

 

Watch NJPW Road to

 

watch now

 

 

Uploaded By Site DX-TV.com

 

Complete name : NJPW.2021.02.03.Road.to.the.New.Beginning.Day.11.ENGLISH.WEB.h264-LATE.mkv
Format : Matroska
Format version : Version 4
File size : 1.71 GiB
Duration : 2 h 7 min
Overall bit rate : 1 924 kb/s

Watch NJPW Road to

Video
ID : 1
Format : AVC
Format/Info : Advanced Video
Duration : 2 h 7 min
Bit rate : 1 823 kb/s
Width : 960 pixels
Height : 540 pixels
Display aspect ratio : 16:9
Frame rate mode : Constant
Frame rate : 30.000 FPS
Color space : YUV
Chroma subsampling : 4:2:0
Bit depth : 8 bits
Scan type : Progressive
Bits/(Pixel*Frame) : 0.117
Stream size : 1.62 GiB (95%)
Default : Yes
Forced : No
Color range : Limited
Color primaries : BT.601 PAL
Transfer characteristics : BT.601
Matrix coefficients : BT.470 System B/G

Watch NJPW Road to

Audio
ID : 2
Format : AAC LC
Format/Info : Advanced Audio
Codec ID : A_AAC-2
Duration : 2 h 7 min
Bit rate : 99.3 kb/s
Channel(s) : 2 channels
Channel layout : L R
Sampling rate : 44.1 kHz
Frame rate : 43.066 FPS (1024 SPF)
Compression mode : Lossy
Stream size : 90.2 MiB (5%)
Language : English
Default : Yes
Forced : No

Complete name : NJPW.2021.02.03.Road.to.the.New.Beginning.Day.11.JAPANESE.WEB.h264-LATE.mkv
Format : Matroska
Format version : Version 4
File size : 1.71 GiB
Duration : 2 h 7 min
Overall bit rate : 1 930 kb/s

Watch NJPW Road to

Video
ID : 1
Format : AVC
Format/Info : Advanced Video
Duration : 2 h 7 min
Bit rate : 1 828 kb/s
Width : 960 pixels
Height : 540 pixels
Display aspect ratio : 16:9
Frame rate mode : Constant
Frame rate : 30.000 FPS
Color space : YUV
Chroma subsampling : 4:2:0
Bit depth : 8 bits
Scan type : Progressive
Bits/(Pixel*Frame) : 0.118
Stream size : 1.62 GiB (95%)
Default : Yes
Forced : No
Color range : Limited
Color primaries : BT.601 PAL
Transfer characteristics : BT.601
Matrix coefficients : BT.470 System B/G

Watch NJPW Road to

Audio
ID : 2
Format : AAC LC
Format/Info : Advanced Audio
Codec ID : A_AAC-2
Duration : 2 h 7 min
Bit rate : 99.4 kb/s
Channel(s) : 2 channels
Channel layout : L R
Sampling rate : 44.1 kHz
Frame rate : 43.066 FPS (1024 SPF)
Compression mode : Lossy
Stream size : 90.3 MiB (5%)
Language : English
Default : Yes
Forced : No

Watch NJPW 

 

https://dx-tv.com/

You May Also Like

Leave a Reply

Your email address will not be published. Required fields are marked *

This site uses Akismet to reduce spam. Learn how your comment data is processed.