Watch NJPW Road to Destruction 05 09 2019 Live

Watch NJPW Road to Destruction 05 09 2019 Live DX-TV

 

 

NJPW Road to Destruction
NJPW Road to Destruction

 

 

dx-tv.com

 

 

 

shrt10.com

 

 

Watch NJPW Road to Destruction 05 09 2019 Live

 

 

Complete name : NJPW ROAD TO DESTRUCTION 05 09 2019 WEB x264 DX-TV.mp4
Format : MPEG-4
Format profile : Base Media
Codec ID : isom
File size : 2.26 GiB
Duration : 2 h 27 min
Overall bit rate : 2 200 kb/s
Codirector : codirector
Production studio : studio

Video
ID : 1
Format : AVC
Format/Info : Advanced Video Codec
Codec ID/Info : Advanced Video Coding
Duration : 2 h 27 min
Bit rate : 2 000 kb/s
Width : 960 pixels
Height : 540 pixels
Display aspect ratio : 16:9
Frame rate mode : Constant
Frame rate : 30.000 FPS
Color space : YUV
Chroma subsampling : 4:2:0
Bit depth : 8 bits
Scan type : Progressive
Bits/(Pixel*Frame) : 0.129
Stream size : 2.06 GiB (91%)

Audio
ID : 2
Codec ID : mp4a-40-2
Duration : 2 h 27 min
Bit rate mode : Constant
Bit rate : 192 kb/s
Channel(s) : 2 channels
Channel layout : L R
Sampling rate : 44.1 kHz
Frame rate : 43.066 FPS (1024 SPF)
Compression mode : Lossy
Stream size : 202 MiB (9%)
Default : Yes
Alternate group : 1

 

 

Watch online

 

 

Server 1

 

 

 

 

 

watch now

 

 

Uploaded By Site DX-TV.com

 

 

 

https://shrt10.com
https://shrt10.com

 

 

 

Watch NJPW Road to Destruction 05 09 2019 Live

 

 

 

 

 

Will be add all links and watching online after end live show

 

 

 

 

Leave a Reply

Your email address will not be published. Required fields are marked *

1 × 2 =

WhatsApp chat