Watch NJPW New Year Dash 2021 Jan 06 English DX-TV

Watch NJPW New Year Dash 2021 Jan 06 English DX-TV

Watch NJPW New Year Dash 2021

 Watch NJPW New Year Dash 2021

 

Download Links with premium High Speed   

 

 

nitroflare.com

http://shrt10.com/oxOZQ

 

 

rapidgator.net

http://shrt10.com/NMQuzxvh

 

 

uploaded.net

http://shrt10.com/4R78YFSMl

 

 

uploadgig.com

http://shrt10.com/r6pA4Va4h

 

Watch NJPW New Year Dash 2021 online

 

Server 1

 

 

 

 

Watch NJPW New Year Dash 2021

 

 

 

 

Server-2

 

 

 

 

watch now

 

 

Uploaded By Site DX-TV.com

 

 
Complete name : NJPW.2021.01.06.New.Year.Dash.ENGLISH.WEB.h264-LATE.mkv
Format : Matroska
Format version : Version 4
File size : 2.05 GiB
Duration : 2 h 32 min
Overall bit rate : 1 935 kb/s

 NJPW New Year Dash 2021

Video
ID : 1
Format : AVC
Format/Info : Advanced Video
Duration : 2 h 32 min
Bit rate : 1 832 kb/s
Width : 960 pixels
Height : 540 pixels
Display aspect ratio : 16:9
Frame rate mode : Constant
Frame rate : 30.000 FPS
Color space : YUV
Chroma subsampling : 4:2:0
Bit depth : 8 bits
Scan type : Progressive
Bits/(Pixel*Frame) : 0.118
Stream size : 1.95 GiB (95%)
Default : Yes
Forced : No
Color range : Limited
Color primaries : BT.601 PAL
Transfer characteristics : BT.601
Matrix coefficients : BT.470 System B/G

Watch NJPW New Year Dash  

Audio
ID : 2
Format : AAC LC
Format/Info : Advanced Audio
Codec ID : A_AAC-2
Duration : 2 h 32 min
Bit rate : 100 kb/s
Channel(s) : 2 channels
Channel layout : L R
Sampling rate : 44.1 kHz
Frame rate : 43.066 FPS (1024 SPF)
Compression mode : Lossy
Stream size : 109 MiB (5%)
Language : English
Default : Yes
Forced : No

Audio
ID : 2
Format : AAC LC
Format/Info : Advanced Audio
Codec ID : A_AAC-2
Duration : 2 h 32 min
Bit rate : 100 kb/s
Channel(s) : 2 channels
Channel layout : L R
Sampling rate : 44.1 kHz
Frame rate : 43.066 FPS (1024 SPF)
Compression mode : Lossy
Stream size : 109 MiB (5%)
Language : English
Default : Yes
Forced : No

Watch NJPW New Year  

Audio
ID : 2
Format : AAC LC
Format/Info : Advanced Audio
Codec ID : A_AAC-2
Duration : 2 h 32 min
Bit rate : 100 kb/s
Channel(s) : 2 channels
Channel layout : L R
Sampling rate : 44.1 kHz
Frame rate : 43.066 FPS (1024 SPF)
Compression mode : Lossy
Stream size : 109 MiB (5%)
Language : English
Default : Yes
Forced : No

https://dx-tv.com/

Leave a Reply

Your email address will not be published. Required fields are marked *

This site uses Akismet to reduce spam. Learn how your comment data is processed.