Watch NJPW NEW Year Dash 2020-01-06 Japan DX-TV

Watch NJPW NEW Year Dash 2020-01-06 Japan DX-TV

 

 

NJPW

 

 

 

 

dx-tv.com

 

 

 

 

Watch NJPW NEW Year Dash 2020-01-06 Japan DX-TV

 

 

 

 

Complete name : NJPW NEW Year Dash 2020-01-06 japanes WEB DX-TV.mp4
Format : MPEG-4
Format profile : Base Media
File size : 2.84 GiB
Duration : 3 h 7 min
Overall bit rate : 2 170 kb/s
Writing application : Lavf58.25.100

Video
ID : 1
Format : AVC
Format/Info : Advanced Video Codec
Codec ID : avc1
Codec ID/Info : Advanced Video Coding
Duration : 3 h 7 min
Bit rate : 2 000 kb/s
Width : 960 pixels
Height : 540 pixels
Display aspect ratio : 16:9
Frame rate mode : Constant
Frame rate : 30.000 FPS
Color space : YUV
Chroma subsampling : 4:2:0
Bit depth : 8 bits
Scan type : Progressive
Bits/(Pixel*Frame) : 0.129
Stream size : 2.62 GiB (92%)
Codec configuration box : avcC

Audio
ID : 2
Format : AAC LC
Format/Info : Advanced Audio Codec Low Complexity
Codec ID : mp4a-40-2
Duration : 3 h 7 min
Bit rate mode : Constant
Bit rate : 161 kb/s
Channel(s) : 2 channels
Channel layout : L R
Sampling rate : 44.1 kHz
Frame rate : 43.066 FPS (1024 SPF)
Compression mode : Lossy
Stream size : 216 MiB (7%)
Default : Yes
Alternate group : 1

 

 

 

 

 

 

Watch online

 

Server 1

 

 

 

 

watch now

 

 

 

 

 

 

 

Watch NJPW NEW Year Dash 2020-01-06 Japan DX-TV

 

 

 

Uploaded By Site DX-TV.com

 

 

 

 

Download VIP Members FTP Link and Free Links 

 

 

Limited Time will be removed after 30 days if you need available again pm email admin

 

This section is only available to registered users.

 

dailyuploads.net

 

 

dl.free.fr

 

 

 

 

Download with premium account Links 

 

 

earn4files.com

 

 

nitroflare.com

 

 

rapidgator.net

 

 

uploaded.net

 

 

 

 

 

 

 

 

 

Categories



Archives