Watch NJPW G1 Climax 31 Day 15 – 2021 10 13 Replay

Watch NJPW G1 Climax 31 Day 15 English / Japan 2021 10 13 Replay DX-TV

Watch NJPW G1 Climax

 Watch NJPW G1 Climax

 

 

 

Download Links with premium High Speed

Dopapk

 

 

Show Links

 

 

http://shrt10.com/4Qo6Ul0ln
http://shrt10.com/HdWBhq4

 

 

 

 

 

Nitroflare

 

 

Show Links

 

 

http://shrt10.com/hhqkzYpm
http://shrt10.com/eqgjY0G

 

 

 

 

Rapidgator

 

 

Show Links

 

 

http://shrt10.com/UNBeavn9k
http://shrt10.com/VjoHP2J

 

 

 

 

 

Uploaded
 

Show Links

 

 

http://shrt10.com/q4WvjSL7
http://shrt10.com/Uq5qjl

 

 

 

 

 

 

 

Watch online

 

Server 1

 

 

 

 

watch now

 

 

watch now

 

 

Server-2

 

 

 

 

Watch NJPW G1 Climax

 

watch now

 

 

 

|Server-3

 

 

 

 

watch now

 

watch now

 

 

Uploaded By Site DX-TV.com

 

 

Open Info Show

 

 

Complete name : NJPW.2021.10.13.G1.Climax.31.Day.15.ENGLISH.WEB.h264-LATE.mkv
Format : Matroska
Format version : Version 4
File size : 2.25 GiB
Duration : 2 h 46 min
Overall bit rate : 1 937 kb/s

Watch NJPW G1  

Video
ID : 1
Format : AVC
Duration : 2 h 46 min
Bit rate : 1 834 kb/s
Width : 960 pixels
Height : 540 pixels
Display aspect ratio : 16:9
Frame rate mode : Constant
Frame rate : 30.000 FPS
Color space : YUV
Chroma subsampling : 4:2:0
Bit depth : 8 bits
Scan type : Progressive
Bits/(Pixel*Frame) : 0.118
Stream size : 2.13 GiB (95%)
Default : Yes
Forced : No
Color range : Limited
Color primaries : BT.601 PAL
Transfer characteristics : BT.601
Matrix coefficients : BT.470 System B/G

Watch NJPW G1 Climax

Audio
ID : 2
Format : AAC LC
Codec ID : A_AAC-2
Duration : 2 h 46 min
Bit rate : 100 kb/s
Channel(s) : 2 channels
Channel layout : L R
Sampling rate : 44.1 kHz
Frame rate : 43.066 FPS (1024 SPF)
Compression mode : Lossy
Stream size : 119 MiB (5%)
Default : Yes
Forced : No

Complete name : NJPW.2021.10.13.G1.Climax.31.Day.15.JAPANESE.WEB.h264-LATE.mkv
Format : Matroska
Format version : Version 4
File size : 2.25 GiB
Duration : 2 h 46 min
Overall bit rate : 1 936 kb/sit

Video
ID : 1
Format : AVC
Codec ID : V_MPEG4/ISO/AVC
Duration : 2 h 46 min
Bit rate : 1 834 kb/s
Width : 960 pixels
Height : 540 pixels
Display aspect ratio : 16:9
Frame rate mode : Constant
Frame rate : 30.000 FPS
Color space : YUV
Chroma subsampling : 4:2:0
Bit depth : 8 bits
Scan type : Progressive
Bits/(Pixel*Frame) : 0.118
Stream size : 2.13 GiB (95%)
Default : Yes
Forced : No
Color range : Limited
Color primaries : BT.601 PAL
Transfer characteristics : BT.601
Matrix coefficients : BT.470 System B/G

Watch NJPW G1 Climax

Audio
ID : 2
Format : AAC LC
Codec ID : A_AAC-2
Duration : 2 h 46 min
Bit rate : 99.6 kb/s
Channel(s) : 2 channels
Channel layout : L R
Sampling rate : 44.1 kHz
Frame rate : 43.066 FPS (1024 SPF)
Compression mode : Lossy
Stream size : 118 MiB (5%)
Default : Yes
Forced : No

 

 

https://dx-tv.com/

 

 

 

 

 

You May Also Like

Leave a Reply

Your email address will not be published. Required fields are marked *

This site uses Akismet to reduce spam. Learn how your comment data is processed.