Watch NJPW English Day 8 Road to Power Struggle 2020

Watch Wrestling NJPW English Day 8 Road to Power Struggle 2020 11 02 DX-TV

NJPW Road to Power Struggle 2020

 

 NJPW Road to Power Struggle 2020
 


 

 

Watch NJPW English Day 8 Road to Power Struggle 2020

 

 

5th Match: Los Ingobernables De Japon (SANADA & Tetsuya Naito) vs BULLET CLUB (EVIL & Yujiro Takahashi)

While the Road to Power Struggle will make some more live stops during the coming week,

this will be the last chance for EVIL to make a statement to the NJPW World audience.

before his showdown with Tetsuya Naito for the double IWGP titles November 7.

Last night, Dick Togo and the ‘Spoiler’s Choke’ made its presence felt,

leading to a DQ victory for Naito, but after EVIL laid the double champion out with the IWGP Heavyweight title and EVIL,

he certainly didn’t seem like the victor. What will the BULLET CLUB dup have up their sleeves?

Plus, from the G1 Climax final just two weeks ago to not factoring into the equation at Power Struggle,

what steps will SANADA make as time ticks down to Wrestle Kingdom?

NJPW Road to Power Struggle 2020

Complete name : NJPW.2020.11.02.Road.to.Power.Struggle.Day.8.ENGLISH.720p.WEB.h264-LATE.mkv
Format : Matroska
Format version : Version 4
File size : 2.35 GiB
Duration : 2 h 48 min
Overall bit rate : 2 003 kb/s

NJPW Road to Power Struggle 2020

Video
ID : 1
Format : AVC
Duration : 2 h 48 min
Bit rate : 1 904 kb/s
Width : 1 280 pixels
Height : 720 pixels
Display aspect ratio : 16:9
Frame rate mode : Constant
Frame rate : 30.000 FPS
Color space : YUV
Chroma subsampling : 4:2:0
Bit depth : 8 bits
Scan type : Progressive
Bits/(Pixel*Frame) : 0.069
Stream size : 2.24 GiB
Forced : No

NJPW Road to Power Struggle 2020

Audio
ID : 2
Format : AAC LC
Format/Info : Advanced Audio
Codec ID : A_AAC-2
Duration : 2 h 48 min
Bit rate : 96.0 kb/s
Channel(s) : 2 channels
Channel layout : L R
Sampling rate : 44.1 kHz
Frame rate : 43.066 FPS
Compression mode : Lossy
Delay relative to video : -23 ms
Stream size : 114 MiB
Default : Yes
Forced : No

 

 

 

Watch NJPW English Day 8 Road to Power Struggle 2020

 

Watch online

 

 

Server 1

 

 

 

 

 

 

 

 

Server-2

 

 

 

 

 

 

 

Server-3

 

 

 

watch now

 

 

 

 

Uploaded By Site DX-TV.com

 

 

 

 

Download Free Links with normal and high Speed [ more 14 hosts ]  

 

[su_expand more_text=”Show Hosts Info” less_text=”Close all Info” height=”30″ text_color=”#000000″ link_color=”#e25f8b” link_style=”button” more_icon=”icon: arrow-down” less_icon=”icon: arrow-up”]

 

NJPW Road to Power Struggle 2020

hexupload.net – clicknupload.co – www.multiup.org – uptobox.com – anonfiles.com – userscloud.com –

dropapk.to alfafile.net – ddownload.com – rockfile.co – 1fichier.com – filedown.org – katfile.com – filerio.in

 

 

[/su_expand]

 

 

 

http://shrt10.com/WRjf0Di
http://shrt10.com/RAkUc7Z
http://shrt10.com/NKtY5y
http://shrt10.com/rxFdYd
http://shrt10.com/h5rlb
http://shrt10.com/xyXjNqB

 

 

 

Download Links with premium High Speed   

 

NJPW Road to Power Struggle 2020

 

 

dropapk.to

 

 

 

nitroflare.com

 

 

 

rapidgator.net

 

 

 

uploaded.net

 

 

 

uploadgig.com

 

 

 

 

 

dx-tv.com

 

urlfree.net

You May Also Like

Leave a Reply

Your email address will not be published. Required fields are marked *

This site uses Akismet to reduce spam. Learn how your comment data is processed.