Watch NJPW Destruction in Hiroshima 2018 09 15 720p TV

Watch NJPW Destruction in Hiroshima 2018 09 15 720p TV

 

 

 

 


 

 

 

dx-tv.com

 

 

 

 

Complete name : 2018.09.15.NJPW.Destruction.in.Hiroshima.2018.(TV.Asahi.2).mp4
Format : MPEG-4
Format profile : Base Media
File size : 4.12 GiB
Duration : 3 h 26 min
Overall bit rate : 2 851 kb/s
Writing application : Lavf57.84.100

Video
ID : 1
Format : AVC
Format/Info : Advanced Video Codec
Codec ID/Info : Advanced Video Coding
Duration : 3 h 26 min
Bit rate : 2 707 kb/s
Width : 1 280 pixels
Height : 720 pixels
Display aspect ratio : 16:9
Frame rate mode : Constant
Frame rate : 60.000 FPS
Color space : YUV
Chroma subsampling : 4:2:0
Bit depth : 8 bits
Scan type : Progressive
Bits/(Pixel*Frame) : 0.049
Stream size : 3.91 GiB (95%)

Audio
ID : 2
Format : AAC
Format/Info : Advanced Audio Codec
Format profile : LC
Codec ID : mp4a-40-2
Duration : 3 h 26 min
Bit rate mode : Constant
Bit rate : 128 kb/s
Channel(s) : 2 channels
Channel positions : Front: L R
Sampling rate : 44.1 kHz
Frame rate : 43.066 FPS
Compression mode : Lossy
Stream size : 190 MiB (4%)
Default : Yes
Alternate group : 1

 

 

 

Watch NJPW Destruction in Hiroshima 2018 09 15 720p TV

 

 

 

 

Watch online

 

 

Waiting finish converting video

 

 

Server 1

 

 

 

 

 

 

 

 

 

 

 

 

 

 

 

Server 2

 

 

 

 

 

 


 

 

 

 

 

Uploaded By Site DX-TV.com

 

 

 

open rar file to see this password

 

 

 

 

The password : DX-TV.com

 

 

 

 

 

 

Uploaded.net + rapidgator.net

 

 

 

 

 
http://shrt10.com/HKzL

 
http://shrt10.com/mWy4SV

 

 

 

 

 

Watch NJPW Destruction in Hiroshima 2018 09 15 720p TV

Leave a Reply

This site uses Akismet to reduce spam. Learn how your comment data is processed.

Support HVIPS

Please Disable Ad-Block To View This site. just help us to continue this work