Watch NJPW Day 7 English Road to the New Beginning 2021

Watch NJPW Day 7 English Road to the New Beginning 2021 01 25 DX-TV

Watch NJPW Day 7

 Watch NJPW Day 7

 

Download Links with premium High Speed   

 

 

dropapk.to

http://shrt10.com/qN3JE

 

 

nitroflare.com

http://shrt10.com/5TArCEdC

 

 

rapidgator.net

http://shrt10.com/a5dDm1zM

 

 

uploaded.net

http://shrt10.com/b0FGpfb

 

 

 

Watch NJPW online

 

Server 1

 

 

 

 

Watch NJPW

 

 

 

 

Server-2

 

 

 

 

watch now

 

 

Uploaded By Site DX-TV.com

 

 

Complete name : NJPW.2021.01.25.Road.to.the.New.Beginning.Day.7.ENGLISH.WEB.h264-LATE.mkv
Format : Matroska
Format version : Version 4
File size : 1.81 GiB
Duration : 2 h 15 min
Overall bit rate : 1 919 kb/s

Watch NJPW

Video
ID : 1
Format : AVC
Duration : 2 h 15 min
Bit rate : 1 817 kb/s
Width : 960 pixels
Height : 540 pixels
Display aspect ratio : 16:9
Frame rate mode : Constant
Frame rate : 30.000 FPS
Color space : YUV
Chroma subsampling : 4:2:0
Bit depth : 8 bits
Scan type : Progressive
Bits/(Pixel*Frame) : 0.117
Stream size : 1.71 GiB (95%)
Default : Yes
Forced : No
Color range : Limited
Color primaries : BT.601 PAL
Transfer characteristics : BT.601
Matrix coefficients : BT.470

Watch NJPW online

Audio
ID : 2
Format : AAC LC
Format/Info : Advanced Audio
Codec ID : A_AAC-2
Duration : 2 h 15 min
Bit rate : 99.4 kb/s
Channel(s) : 2 channels
Channel layout : L R
Sampling rate : 44.1 kHz
Frame rate : 43.066 FPS (1024 SPF)
Compression mode : Lossy
Stream size : 96.0 MiB (5%)
Language : English
Default : Yes

Watch NJPW

Forced : No

Audio
ID : 2
Format : AAC LC
Format/Info : Advanced Audio
Codec ID : A_AAC-2
Duration : 2 h 15 min
Bit rate : 99.4 kb/s
Channel(s) : 2 channels
Channel layout : L R
Sampling rate : 44.1 kHz
Frame rate : 43.066 FPS (1024 SPF)
Compression mode : Lossy
Stream size : 96.0 MiB (5%)
Language : English
Default : Yes
Forced : No

Watch NJPW

Audio
ID : 2
Format : AAC LC
Format/Info : Advanced Audio
Codec ID : A_AAC-2
Duration : 2 h 15 min
Bit rate : 99.4 kb/s
Channel(s) : 2 channels
Channel layout : L R
Sampling rate : 44.1 kHz
Frame rate : 43.066 FPS (1024 SPF)
Compression mode : Lossy
Stream size : 96.0 MiB (5%)
Language : English
Default : Yes
Forced : No

Watch NJPW Day 7

 

https://dx-tv.com/

You May Also Like

Leave a Reply

Your email address will not be published. Required fields are marked *

This site uses Akismet to reduce spam. Learn how your comment data is processed.