Watch NJPW Day 3 Best Of The Super Jr 27 Free Online

NJPW Day 3 Best Of The Super Jr 27 Nov 18 Free Online DX-TV

NJPW Best Of The Super Jr 27 Day 3

 

 NJPW Best Of The Super Jr 27 Day 3

 

Watch NJPW Day 3 Best Of The Super Jr 27 Free Online

 

 

[su_expand more_text=”Show More Info” less_text=”Close all Info” height=”30″ text_color=”#000000″ link_color=”#e25f8b” link_style=”button” more_icon=”icon: arrow-down” less_icon=”icon: arrow-up”]

 

Complete name : NJPW Best Of The Super Jr 27 Day 3 2020 11 18 WEB DX-TV.mp4
Format : MPEG-4
Format profile : Base Media
Codec ID : isom
File size : 2.24 GiB
Duration : 2 h 15 min
Overall bit rate : 2 365 kb/s
Writing application : Lavf58.25

NJPW Best Of The Super Jr 27 Day 3

Video
ID : 1
Format : AVC
Duration : 2 h 15 min
Bit rate : 2 255 kb/s
Width : 1 280 pixels
Height : 720 pixels
Display aspect ratio : 16:9
Frame rate mode : Variable
Frame rate : 30.000 FPS
Color space : YUV
Chroma subsampling : 4:2:0
Bit depth : 8 bits
Scan type : Progressive
Bits/(Pixel*Frame) : 0.082
Stream size : 2.14 GiB
Color range : Limited
Color primaries : BT.709
Transfer characteristics : BT.709
Matrix coefficients : BT.709
Codec configuration box : avc

NJPW Best Of The Super Jr 27 Day 3

Audio
ID : 2
Format : AAC LC
Format/Info : Advanced Audio
Codec ID : mp4a-40-2
Duration : 2 h 15 min
Bit rate mode : Constant
Bit rate : 99.4 kb/s
Channel(s) : 2 channels
Channel layout : L R
Sampling rate : 44.1 kHz
Frame rate : 43.066 FPS
Compression mode : Lossy
Stream size : 96.5 MiB (4%)
Default : Yes
Alternate group : 1

NJPW Best Of The Super Jr 27 Day 3

THE EMPIRE (Jeff Cobb & Great-O-Khan) (1-1) vs BULLET CLUB (Bad Luck Fale & Chase Owens) (0-2)

Three days after a flash roll-up from Hirooki Goto cost he and Jeff Cobb.

Great-O-Khan will be hungry for revenge as THE EMPIRE faces BULLET CLUB in the second match of the night.

On both sides a combination of power and tactical awareness make for a difficult match to call, and one of the most physical on the night’s card. 

NJPW Best Of The Super Jr 27 Day 3

1st Match: Tomoaki Honma & Satoshi Kojima vs Yuji Nagata & Yota Tsuji

24 hours removed from Gabriel Kidd being the Young Lion apprentice to Yuji Nagata, Yota Tsuji takes on the role in Korakuen Hall.

Will he be taught more rough lessons, or surprising his masters with the benefit of his recent experiences?

 

Watch NJPW Day 3 Best Of The Super Jr 27 Free Online

 

 

[/su_expand]

 

 

Watch online

 

 

Server 1

 

 

 

 

 

 

Server-2

NJPW Best Of The Super Jr 27 Day 3

 

 

 

 

 

 

 

Server–3

 

 

 

 

 

 

 

 

Uploaded By Site DX-TV.com

 

 

 

 

Download Free Links with normal and high Speed [ more 14 hosts ]  

 

[su_expand more_text=”Show Hosts Info” less_text=”Close all Info” height=”30″ text_color=”#000000″ link_color=”#e25f8b” link_style=”button” more_icon=”icon: arrow-down” less_icon=”icon: arrow-up”]

 

 Best Of The Super Jr 27 Day 3

hexupload.net – clicknupload.co – www.multiup.org

– uptobox.com – anonfiles.com – userscloud.com –

dropapk.to alfafile.net – ddownload.com – rockfile.co

– 1fichier.com – filedown.org – katfile.com – filerio.in

 

 

[/su_expand]

 

 

 

http://shrt10.com/odpOl3b
http://shrt10.com/s7I0m5
http://shrt10.com/RPKFs
http://shrt10.com/NtP1ZN
http://shrt10.com/6UgQxDD
http://shrt10.com/3L3Qk9

 

 

 

Download Links with premium High Speed   

 

 

 

 

dropapk.to

 

 

 

nitroflare.com

 

 

 

rapidgator.net

 

 

 

uploaded.net

 

 

 

uploadgig.com

 

 

 

 

 

dx-tv.com

 

urlfree.net

You May Also Like

Leave a Reply

Your email address will not be published. Required fields are marked *

This site uses Akismet to reduce spam. Learn how your comment data is processed.