Watch NJPW Day 15 G1 Climax 30 10 13 2020 Japanese

NJPW Day 15 G1 Climax 30 10 13 2020 JapaneseDX-TV

 

NJPW Day 15 G1 Climax 30

 

NJPW Day 15 G1 Climax 30

 

Watch NJPW Day 15 G1 Climax 30 10 13 2020 Japanese

 

Shingo Takagi (3-4) vs Taichi (3-4)

Singles record 1-0 Taichi (2019 G1)

Both men are mathematically eliminated. 

NJPW Day 15 G1 Climax 30

Shingo Takagi and Taichi might have very different philosophies when it comes to getting business settles in the ring, but their career paths aren’t altogether disparate. Both came into NJPW from other promotions, and both had harsh mentors in Toshiaki Kawada and Genichiro Tenryu that embued a hard nosed attitude and high pain tolerance within. 

Takagai and Taichi both competed as junior heavyweights when they started in New Japan,

albeit with Taichi spending longer in the division, and both have found the NEVER Open weight Championship,

as part of their transition to heavyweight competition.

For tonight in Hamamatsu though, the biggest similarity is the scoreline between the two men.

With both wrestlers effectively out of the running at six points, there is no real path to the finals for them,

and instead the pride at finishing with the positive ten point shoreline.   

NJPW Day 15 G1 Climax 30

Kota Ibushi (5-2) vs Yujiro Takahashi (0-7)

Singles record: 1-0 Yujiro (2013 G1)

Ibushi has wins over Okada and Ospreay

He has a loss against White. 

 

Just as with Minoru Suzuki in Osaka, Ibushi heads into his first singles encounter with Yujiro Takahashi since the 2013 G1. Just like that tournament, Yujiro beat Ibushi seven years ago, and just like that tournament, things have changed for both men since. It’s easy to paint Ibushi as the hands down favourite in this one, especially when opponent Yujiro is in the midst of the worst losing streak in the G1 in three years, but hope springs eternal for Yujiro, and after what happened with Jay White in Osaka, Yujiro might be driving the car like he stole it in Hamamatsu. 

NJPW Day 15 G1 Climax 30

After he refused to lay down for Jay White Saturday, he incurred the wrath of the BULLET CLUB leader, and his paranoia to boot. With EVIL stirring the pot over in B Block, Yujiro deciding to go into business for himself could be hugely problematic to his future in the group. Yujiro might be forced to fight for self preservation, and coupled with damage incurred by Ibushi against Suzuki over the weekend, this is the definition of a trap game.  

 

 

Complete name : NJPW.10.13.2020.G1.Climax.30.Day.15.Japanese.WEB.h264-DaShield.mp4
Format : MPEG-4
Format profile : Base Media
Codec ID : isom (isom/iso2/avc1/mp41)
File size : 2.20 GiB
Duration : 2 h 39 min
Overall bit rate mode : Variable
Overall bit rate : 1 980 kb/s

NJPW Day 15 G1 Climax 30

Video
ID : 1
Format : AVC
Duration : 2 h 39 min
Bit rate : 1 869 kb/s
Width : 960 pixels
Height : 540 pixels
Display aspect ratio : 16:9
Frame rate mode : Variable
Frame rate : 30.000 FPS
Color space : YUV
Chroma subsampling : 4:2:0
Bit depth : 8 bits
Scan type : Progressive
Bits/(Pixel*Frame) : 0.120
Stream size : 2.08 GiB (94%)
Color range : Limited
Color primaries : BT.601 PAL
Transfer characteristics : BT.601
Matrix coefficients : BT.470 System B/G
Codec configuration box : avcC

NJPW Day 15 G1 Climax 30

Audio
ID : 2
Format : AAC LC
Format/Info : Advanced Audio 
Codec ID : mp4a-40-2
Duration : 2 h 39 min
Bit rate mode : Variable
Bit rate : 99.6 kb/s
Maximum bit rate : 111 kb/s
Channel(s) : 2 channels
Channel layout : L R
Sampling rate : 44.1 kHz
Frame rate : 43.066 FPS (1024 SPF)
Compression mode : Lossy
Stream size : 113 MiB (5%)
Default : Yes
Alternate group : 1

 

 

Watch NJPW Day 15 G1 Climax 30 10 13 2020 Japanese

 

 

 

 

Watch online

 

 

 

 

 

Server 1

 

 

 

 

watch now

 

 

 

 

Server-2

 

 

 

watch now

 

 

 

 

Server-3

 

 

 

NJPW Day 15 G1 Climax 30

 

 

 

 

Uploaded By Site DX-TV.com

 

 

 

 

Download Free Links with normal and high Speed [ more 14 hosts ]  

 

 

 

 

http://shrt10.com/x7ljCr
http://shrt10.com/UGQ8D2Of3
http://shrt10.com/gw6vMaw
http://shrt10.com/RPtua
http://shrt10.com/wRztDy3
http://shrt10.com/VHOlBx2gX
http://shrt10.com/HvqxX
http://shrt10.com/gG5i6Wz1C
http://shrt10.com/gYDw38jk

 

 

 

Download Links with premium High Speed   

 

 

 

 

dropapk.to

 

 

 

nitroflare.com

 

 

 

rapidgator.net

 

 

 

uploaded.net

 

 

 

uploadgig.com

 

 

 

 

NJPW Day 15 G1 Climax 30

dx-tv.com

 

urlfree.net

Leave a Reply

Your email address will not be published. Required fields are marked *

This site uses Akismet to reduce spam. Learn how your comment data is processed.