Watch NJPW Day 10 G1 Climax 30 English 2020 10 06 720p

NJPW Day 10 G1 Climax 30 English 2020 10 06 720p DX-TV

 

Watch NJPW G1 Climax 30

 

G1 CLIMAX 30 Day 10

 

Watch NJPW Day 10 G1 Climax 30 English 2020 10 06 720p

 

 

 

Complete name : NJPW.2020.10.06.G1.Climax.30.Day.10.ENGLISH.720p.WEB.h264-LATE.mkv
Format : Matroska
Format version : Version 4
File size : 2.32 GiB
Duration : 2 h 45 min
Overall bit rate : 2 001 kb/s

Watch NJPW G1 Climax 30

Video
ID : 1
Format : AVC
Duration : 2 h 45 min
Bit rate : 1 904 kb/s
Width : 1 280 pixels
Height : 720 pixels
Display aspect ratio : 16:9
Frame rate mode : Constant
Frame rate : 30.000 FPS
Color space : YUV
Chroma subsampling : 4:2:0
Bit depth : 8 bits
Scan type : Progressive
Bits/(Pixel*Frame) : 0.069
Stream size : 2.21 GiB (95%)

Watch NJPW G1 Climax 30

Audio
ID : 2
Format : AAC LC
Format/Info : Advanced Audio
Codec ID : A_AAC-2
Duration : 2 h 45 min
Bit rate : 93.5 kb/s
Channel(s) : 2 channels
Channel layout : L R
Sampling rate : 44.1 kHz
Frame rate : 43.066 FPS (1024 SPF)
Compression mode : Lossy
Delay relative to video : -23 ms
Stream size : 111 MiB (5%)
Default : Yes
Forced : No

Watch NJPW G1 Climax 30

Hirooki Goto and Toru Yano was the first tournament match on the schedule for the night, and a match that had typically seen quick results rendered in prior years.

Yano went right for the shenanigans with Goto by offering him a shirt, but was rolled up with Goto Shiki for the win in just 18 seconds the fastest match in G1 Climax history. 

Having his record of the fastest victory thus far in the G1 rudely broken by the man he beat just last week.

Zack Sabre Junior steeled himself for a technical affair from his Tokyo Dome opponent in January,

Looking for another quick victory, ZSJ went for a series of rolling cradles early, before he and SANADA traded speedy pinfalls, no result being rendered before the two stood off. 

Watch NJPW G1 Climax 30

Taking a more considered approach, Sabre came up with the left ankle of SANADA before each combatant tried to hyper extend the arm and wrist of their opponents.

With no clear advantage established in the opening minutes, Sabre eventually quickened the pace with strikes,

baiting SANADA into a dropkick and plancha attempt, where he was caught with a Cobra on the floor Still though,

Cold Skull was able to respond, dropkicking out the knees of the Briton on re-entry to the ring, with ZSJ replying with a short arm twist. 

 

Watch NJPW Day 10 G1 Climax 30 English 2020 10 06 720p

 

 

 

 

Watch online

 

 

 

 

 

Server 1

 

 

 

 

watch now

 

 

 

 

Server-2

 

 

 

watch now

 

 

 

 

Server-3

 

 

 

Watch NJPW G1 Climax 30

 

 

 

 

Uploaded By Site DX-TV.com

 

 

 

 

Download Free Links with normal and high Speed [ more 14 hosts ]  

 

 

 

http://shrt10.com/zymzQFq
http://shrt10.com/WMwSV
http://shrt10.com/X8cUO3hk
http://shrt10.com/wuAT5IjVP
http://shrt10.com/8wtR4Xg
http://shrt10.com/CZ4buulbz
http://shrt10.com/kcexB
http://shrt10.com/QS1zQI
http://shrt10.com/k012cDk

 

 

 

 

Download Links with premium High Speed   

 

 

 

 

dropapk.to

 

 

 

nitroflare.com

 

 

 

rapidgator.net

 

 

 

uploaded.net

 

 

 

uploadgig.com

 

 

 

 

 

dx-tv.com

 

urlfree.net

Leave a Reply

Your email address will not be published. Required fields are marked *

This site uses Akismet to reduce spam. Learn how your comment data is processed.